<?xml version="1.0" standalone="no"?>
<!DOCTYPE svg PUBLIC "-//W3C//DTD SVG 1.1//EN" "http://www.w3.org/Graphics/SVG/1.1/DTD/svg11.dtd" >
<svg xmlns="http://www.w3.org/2000/svg" xmlns:xlink="http://www.w3.org/1999/xlink" version="1.1">
<metadata>
Created by FontForge 20190801 at Thu Apr 11 13:37:19 2013
 By www-data
Generated in 2013 by FontLab Studio. Copyright info pending.
</metadata>
<defs>
<font id="CircularStdBold" horiz-adv-x="578" >
  <font-face 
    font-family="CircularStdBold"
    font-weight="700"
    font-stretch="normal"
    units-per-em="1000"
    panose-1="2 11 8 4 2 1 1 1 1 2"
    ascent="809"
    descent="-191"
    x-height="492"
    cap-height="709"
    bbox="-55 -252 1548 997"
    underline-thickness="80"
    underline-position="-195"
    unicode-range="U+000D-FEFF"
  />
<missing-glyph horiz-adv-x="584" 
d="M71 0v709h442v-709h-442zM180 109h224v491h-224v-491z" />
    <glyph glyph-name="f_f" unicode="ff" horiz-adv-x="680" 
d="M553 546v-54h111v-114h-111v-378h-133v378h-190v-378h-134v378h-82v114h82v56q0 83 48.5 133t130.5 50q44 0 66 -10v-112q-17 5 -42 5q-27 0 -48 -15.5t-21 -52.5v-54h190v56q0 83 48.5 133t130.5 50q44 0 66 -10v-112q-17 5 -42 5q-27 0 -48 -15.5t-22 -52.5z" />
    <glyph glyph-name="f_f_i" unicode="ffi" horiz-adv-x="957" 
d="M737 654q0 35 23.5 59t57.5 24t58.5 -24.5t24.5 -58.5t-24 -57.5t-59 -23.5q-34 0 -57.5 23.5t-23.5 57.5zM420 492v58q0 82 48.5 131.5t129.5 49.5q44 0 66 -10v-112q-18 5 -42 5q-27 0 -48 -15.5t-21 -52.5v-54h332v-492h-133v378h-199v-378h-133v378h-190v-378h-134
v378h-82v114h82v56q0 83 48.5 133t130.5 50q44 0 66 -10v-112q-17 5 -42 5q-27 0 -48 -15.5t-21 -52.5v-54h190z" />
    <glyph glyph-name="f_f_l" unicode="ffl" horiz-adv-x="957" 
d="M420 548q0 84 48.5 133.5t129.5 49.5q44 0 66 -10v-112q-18 5 -42 5q-27 0 -48 -15.5t-21 -52.5v-54h200v232h133v-724h-133v378h-200v-378h-133v378h-190v-378h-134v378h-82v114h82v56q0 83 48.5 133t130.5 50q44 0 66 -10v-112q-17 5 -42 5q-27 0 -48 -15.5t-21 -52.5
v-54h190v56z" />
    <glyph glyph-name="f_i" unicode="fi" horiz-adv-x="631" 
d="M427 378h-197v-378h-134v378h-82v114h82v56q0 83 48.5 133t130.5 50q44 0 66 -10v-112q-17 5 -42 5q-27 0 -48 -15.5t-21 -52.5v-54h329v-492h-132v378zM411 654q0 34 24 58.5t58 24.5t58 -24.5t24 -58.5t-24 -57.5t-58 -23.5t-58 23.5t-24 57.5z" />
    <glyph glyph-name="f_l" unicode="fl" horiz-adv-x="630" 
d="M299 614q-27 0 -48 -15.5t-21 -52.5v-54h196v232h133v-724h-133v378h-196v-378h-134v378h-82v114h82v56q0 83 48.5 133t130.5 50q44 0 66 -10v-112q-17 5 -42 5z" />
    <glyph glyph-name=".notdef" horiz-adv-x="584" 
d="M71 0v709h442v-709h-442zM180 109h224v491h-224v-491z" />
    <glyph glyph-name=".null" horiz-adv-x="0" 
 />
    <glyph glyph-name=".null" horiz-adv-x="0" 
 />
    <glyph glyph-name="uni000D" unicode="&#xd;" horiz-adv-x="247" 
 />
    <glyph glyph-name="space" unicode=" " horiz-adv-x="247" 
 />
    <glyph glyph-name="exclam" unicode="!" horiz-adv-x="334" 
d="M247 709l-32 -493h-97l-32 493h161zM88 71q0 33 23 56.5t55 23.5q33 0 56.5 -23.5t23.5 -56.5t-23.5 -56t-56.5 -23q-32 0 -55 23t-23 56z" />
    <glyph glyph-name="quotedbl" unicode="&#x22;" horiz-adv-x="402" 
d="M34 584q0 33 21.5 54.5t53.5 21.5t53 -21.5t21 -54.5q0 -14 -4 -26l-47 -183h-47l-47 183q-4 20 -4 26zM219 584q0 33 21.5 54.5t53.5 21.5t53 -21.5t21 -54.5q0 -14 -4 -26l-47 -183h-47l-47 183q-4 20 -4 26z" />
    <glyph glyph-name="numbersign" unicode="#" horiz-adv-x="742" 
d="M91 396v96h143l34 156h105l-34 -156h131l34 156h104l-34 -156h127v-96h-147l-30 -140h127v-95h-148l-34 -161h-104l34 161h-131l-34 -161h-105l34 161h-122v95h143l30 140h-123zM319 396l-30 -140h131l30 140h-131z" />
    <glyph glyph-name="dollar" unicode="$" horiz-adv-x="596" 
d="M360 -117h-102v107q-97 13 -151.5 73t-62.5 132l124 30q5 -52 40 -86.5t100 -34.5q48 0 75.5 20.5t27.5 54.5q0 55 -75 71l-92 20q-82 18 -128.5 67.5t-46.5 120.5q0 78 53.5 133t135.5 68v107h102v-110q79 -14 123 -61.5t56 -106.5l-123 -35q-6 35 -32.5 64t-81.5 29
q-46 0 -72.5 -23t-26.5 -55q0 -52 69 -67l91 -21q91 -20 137 -71.5t46 -121.5q0 -72 -49.5 -127t-136.5 -69v-108z" />
    <glyph glyph-name="percent" unicode="%" horiz-adv-x="854" 
d="M144 496q0 -31 19 -50.5t47 -19.5q29 0 47.5 19.5t18.5 50.5t-18.5 50t-47.5 19q-28 0 -47 -19.5t-19 -49.5zM44 496q0 68 49 116t117 48t117.5 -48t49.5 -116q0 -69 -49.5 -116t-117.5 -47q-69 0 -117.5 47.5t-48.5 115.5zM581 152q0 -31 19 -50.5t47 -19.5
q29 0 47.5 19.5t18.5 50.5t-18.5 50t-47.5 19q-28 0 -47 -19.5t-19 -49.5zM481 152q0 68 49 116t117 48t117.5 -48t49.5 -116q0 -69 -49.5 -116t-117.5 -47q-69 0 -117.5 47.5t-48.5 115.5zM258 0h-116l458 649h116z" />
    <glyph glyph-name="ampersand" unicode="&#x26;" horiz-adv-x="717" 
d="M545 0l-73 77q-88 -90 -190 -90q-99 0 -157 57t-58 133q0 62 29.5 105t91.5 89l5 3l-11 12q-78 83 -78 154q0 85 59 135t137 50q85 0 141 -50t56 -129q0 -87 -100 -162l-27 -20l107 -113l179 187v-166l-99 -104l160 -168h-172zM284 103q52 0 108 59l-121 128l-15 -11
q-57 -42 -57 -94q0 -32 24 -57t61 -25zM230 544q0 -35 42 -77l19 -21l35 26q45 33 45 75q0 29 -20.5 48.5t-51.5 19.5q-27 0 -48 -18.5t-21 -52.5z" />
    <glyph glyph-name="quotesingle" unicode="'" horiz-adv-x="217" 
d="M34 584q0 33 21.5 54.5t53.5 21.5t53 -21.5t21 -54.5q0 -14 -4 -26l-47 -183h-47l-47 183q-4 20 -4 26z" />
    <glyph glyph-name="parenleft" unicode="(" horiz-adv-x="330" 
d="M43 322q0 291 210 497l77 -71q-175 -186 -175 -426q0 -241 175 -427l-77 -70q-210 205 -210 497z" />
    <glyph glyph-name="parenright" unicode=")" horiz-adv-x="330" 
d="M287 322q0 -292 -210 -497l-77 70q175 186 175 427q0 240 -175 426l77 71q210 -206 210 -497z" />
    <glyph glyph-name="asterisk" unicode="*" horiz-adv-x="455" 
d="M281 709v-127l116 39l33 -98l-118 -38l74 -100l-83 -61l-76 101l-74 -101l-83 62l73 99l-118 38l32 98l117 -39v127h107z" />
    <glyph glyph-name="plus" unicode="+" horiz-adv-x="589" 
d="M49 349h189v195h112v-195h190v-109h-190v-196h-112v196h-189v109z" />
    <glyph glyph-name="comma" unicode="," horiz-adv-x="312" 
d="M61 80q0 36 26 60t65 24q45 0 72 -32.5t27 -82.5q0 -100 -54.5 -155t-121.5 -63v64q36 8 65 38.5t30 69.5q-8 -6 -26 -6q-37 0 -60 23.5t-23 59.5z" />
    <glyph glyph-name="hyphen" unicode="-" horiz-adv-x="380" 
d="M335 238h-290v118h290v-118z" />
    <glyph glyph-name="period" unicode="." horiz-adv-x="311" 
d="M64 84q0 38 27 64.5t64 26.5q38 0 65 -26.5t27 -64.5t-27 -64.5t-65 -26.5q-37 0 -64 26.5t-27 64.5z" />
    <glyph glyph-name="slash" unicode="/" horiz-adv-x="475" 
d="M475 718l-355 -727h-120l354 727h121z" />
    <glyph glyph-name="zero" unicode="0" horiz-adv-x="624" 
d="M179 324q0 -110 35 -165q33 -53 98 -53q64 0 97 53q36 54 36 165t-36 165q-33 53 -97 53q-65 0 -98 -53q-35 -55 -35 -165zM41 324q0 144 57 231q73 109 214 109t213 -109q58 -88 58 -231t-58 -231q-72 -109 -213 -109t-214 109q-57 87 -57 231z" />
    <glyph glyph-name="one" unicode="1" horiz-adv-x="396" 
d="M324 0h-137v434h-156v93q70 1 117 35.5t57 86.5h119v-649z" />
    <glyph glyph-name="two" unicode="2" horiz-adv-x="543" 
d="M173 398l-131 4q-5 22 -5 45q0 90 64 153.5t173 63.5q106 0 170 -60.5t64 -148.5q0 -124 -126 -201l-125 -76q-44 -28 -56 -59h311v-119h-480q1 91 35.5 159t117.5 118l107 64q77 46 77 112q0 37 -25.5 63t-72.5 26q-50 0 -76.5 -30t-26.5 -78q0 -18 5 -36z" />
    <glyph glyph-name="three" unicode="3" horiz-adv-x="549" 
d="M214 288l-61 96l170 146h-284v119h459v-111l-168 -140q77 -3 132.5 -57.5t55.5 -140.5q0 -88 -68 -151.5t-181 -63.5q-109 0 -177 60.5t-74 146.5l133 26q2 -50 34.5 -82t83.5 -32q50 0 80 28t30 70q0 45 -29.5 70.5t-76.5 25.5q-31 0 -59 -10z" />
    <glyph glyph-name="four" unicode="4" horiz-adv-x="597" 
d="M32 139v144l273 366h170v-392h107v-118h-107v-139h-136v139h-307zM339 257v248l-185 -248h185z" />
    <glyph glyph-name="five" unicode="5" horiz-adv-x="554" 
d="M29 182l129 29q2 -46 34.5 -77.5t83.5 -31.5q48 0 80 29t32 77q0 53 -33.5 81t-81.5 28q-61 0 -100 -44q-71 27 -126 43l77 333h366v-119h-272l-32 -143q43 40 117 40q100 0 161 -57.5t61 -159.5q0 -94 -68 -160t-181 -66q-102 0 -171.5 59t-75.5 139z" />
    <glyph glyph-name="six" unicode="6" horiz-adv-x="582" 
d="M538 634l-38 -112q-54 23 -107 23q-85 0 -144.5 -48.5t-70.5 -137.5q20 30 60.5 51t93.5 21q101 0 162.5 -59t61.5 -159q0 -99 -71.5 -163.5t-179.5 -64.5q-112 0 -187.5 78.5t-75.5 219.5q0 174 99 277.5t261 103.5q85 0 136 -30zM190 210q0 -48 33.5 -78.5t80.5 -30.5
q49 0 82 30t33 79t-33 78.5t-82 29.5q-48 0 -81 -29.5t-33 -78.5z" />
    <glyph glyph-name="seven" unicode="7" horiz-adv-x="503" 
d="M498 649v-115q-23 -19 -44 -40t-59.5 -71.5t-67.5 -105.5t-55 -140t-34 -177h-143q8 98 35.5 188.5t62 150t68 105t55.5 66.5l23 20h-334v119h493z" />
    <glyph glyph-name="eight" unicode="8" horiz-adv-x="568" 
d="M284 383q44 1 70 25t26 60q0 34 -26 58t-70 24q-43 0 -69 -24t-26 -58q0 -36 25.5 -60t69.5 -25zM284 99q51 0 80.5 26.5t29.5 63.5q0 38 -29 65t-81 27t-80.5 -27t-28.5 -65q0 -37 29 -63.5t80 -26.5zM284 -15q-110 0 -177.5 53t-67.5 137q0 52 31.5 95t83.5 63
q-47 17 -74.5 58.5t-27.5 86.5q0 82 65.5 134t166.5 52t166.5 -52t65.5 -134q0 -45 -27 -86.5t-74 -58.5q51 -19 82.5 -62.5t31.5 -95.5q0 -84 -67.5 -137t-177.5 -53z" />
    <glyph glyph-name="nine" unicode="9" horiz-adv-x="583" 
d="M53 21l34 111q50 -28 115 -28q90 0 144.5 48t61.5 136q-21 -32 -60.5 -51t-89.5 -19q-94 0 -159 60t-65 158q0 100 70.5 164t178.5 64q112 0 185.5 -79.5t73.5 -227.5q0 -177 -87 -274.5t-252 -97.5q-92 0 -150 36zM390 440q0 47 -32.5 77t-79.5 30q-46 0 -78.5 -30
t-32.5 -77q0 -48 32 -77.5t79 -29.5t79.5 30t32.5 77z" />
    <glyph glyph-name="colon" unicode=":" horiz-adv-x="312" 
d="M67 82q0 37 26 63.5t63 26.5q38 0 64.5 -26.5t26.5 -63.5t-26.5 -63t-64.5 -26q-37 0 -63 26t-26 63zM66 409q0 37 26 63.5t63 26.5q38 0 64.5 -26.5t26.5 -63.5t-26.5 -63t-64.5 -26q-37 0 -63 26t-26 63z" />
    <glyph glyph-name="semicolon" unicode=";" horiz-adv-x="314" 
d="M68 75q0 34 24.5 57t61.5 23q43 0 68.5 -31t25.5 -78q0 -95 -51.5 -147.5t-115.5 -60.5v61q35 8 62 37t28 66q-6 -6 -24 -6q-35 0 -57 22t-22 57zM67 409q0 37 26 63.5t63 26.5q38 0 64.5 -26.5t26.5 -63.5t-26.5 -63t-64.5 -26q-37 0 -63 26t-26 63z" />
    <glyph glyph-name="less" unicode="&#x3c;" horiz-adv-x="497" 
d="M35 244v101l430 217v-123l-296 -143l296 -143v-125z" />
    <glyph glyph-name="equal" unicode="=" horiz-adv-x="603" 
d="M544 341h-485v107h485v-107zM544 142h-485v108h485v-108z" />
    <glyph glyph-name="greater" unicode="&#x3e;" horiz-adv-x="497" 
d="M462 345v-100l-430 -217v123l296 143l-296 143v125z" />
    <glyph glyph-name="question" unicode="?" horiz-adv-x="529" 
d="M303 216h-108q-4 26 -4 41q0 85 79 145l48 36q43 32 43 79q0 37 -26 63.5t-74 26.5q-50 0 -76 -33.5t-26 -79.5q0 -20 4 -32l-126 5q-5 17 -5 45q0 86 61.5 149t167.5 63q110 0 173 -59t63 -140q0 -107 -99 -177l-41 -29q-54 -39 -54 -97v-6zM172 71q0 33 23 56.5
t56 23.5t56.5 -23.5t23.5 -56.5t-23.5 -56t-56.5 -23t-56 23t-23 56z" />
    <glyph glyph-name="at" unicode="@" horiz-adv-x="827" 
d="M589 139q-39 0 -64.5 17.5t-32.5 43.5q-18 -30 -49.5 -46.5t-66.5 -16.5q-66 0 -109 48.5t-43 124.5q0 97 58 161t139 64q31 0 58.5 -14.5t38.5 -42.5l8 44h95l-52 -245q-2 -10 -2 -18q0 -14 8.5 -23.5t23.5 -9.5q38 0 68 49t30 120q0 106 -73.5 172.5t-190.5 66.5
q-127 0 -210 -83.5t-83 -217.5q0 -128 81 -210t220 -82q105 0 184 59l48 -68q-40 -36 -105.5 -58t-126.5 -22q-177 0 -289.5 105t-112.5 274q0 172 114.5 283t278.5 111q154 0 257 -94t103 -235q0 -110 -61 -182.5t-142 -74.5zM496 366q0 37 -17.5 58t-50.5 21
q-44 0 -72.5 -37t-28.5 -89q0 -92 71 -92q41 0 68.5 39.5t29.5 99.5z" />
    <glyph glyph-name="A" unicode="A" horiz-adv-x="722" 
d="M562 0l-59 162h-288l-59 -162h-146l272 709h160l270 -709h-150zM359 556l-98 -268h196z" />
    <glyph glyph-name="B" unicode="B" horiz-adv-x="610" 
d="M81 709h255q101 0 158.5 -53t57.5 -138q0 -54 -29 -95.5t-74 -56.5q54 -13 89.5 -58.5t35.5 -109.5q0 -87 -60 -142.5t-159 -55.5h-274v709zM217 416h98q47 0 74 24t27 65t-26.5 64.5t-75.5 23.5h-97v-177zM217 115h112q50 0 78.5 24.5t28.5 67.5t-27.5 69t-77.5 26h-114
v-187z" />
    <glyph glyph-name="C" unicode="C" horiz-adv-x="764" 
d="M402 -15q-153 0 -258 102t-105 267q0 164 106.5 267t254.5 103q136 0 218.5 -69t106.5 -166l-130 -41q-15 60 -63 101.5t-132 41.5q-87 0 -152.5 -62t-65.5 -175q0 -108 64.5 -171t155.5 -63q83 0 132.5 43t66.5 102l129 -39q-11 -43 -35.5 -84t-63.5 -77t-98.5 -58
t-130.5 -22z" />
    <glyph glyph-name="D" unicode="D" horiz-adv-x="724" 
d="M219 128h110q93 0 153 58t60 168t-60 168.5t-152 58.5h-111v-453zM334 0h-253v709h254q155 0 252.5 -95t97.5 -260q0 -164 -98 -259t-253 -95z" />
    <glyph glyph-name="E" unicode="E" horiz-adv-x="582" 
d="M525 0h-444v709h444v-130h-306v-162h277v-123h-277v-164h306v-130z" />
    <glyph glyph-name="F" unicode="F" horiz-adv-x="562" 
d="M220 0h-139v709h448v-131h-310v-175h276v-127h-275v-276z" />
    <glyph glyph-name="G" unicode="G" horiz-adv-x="781" 
d="M723 0h-112l-9 81q-27 -41 -80.5 -68.5t-128.5 -27.5q-148 0 -251 101t-103 268q0 166 106.5 268t256.5 102q130 0 212.5 -63t111.5 -155l-132 -47q-16 55 -64.5 95.5t-127.5 40.5q-90 0 -156.5 -62t-66.5 -179q0 -115 64.5 -179t159.5 -64q88 0 135 44.5t55 93.5h-224
v120h354v-369z" />
    <glyph glyph-name="H" unicode="H" horiz-adv-x="748" 
d="M667 0h-139v294h-309v-294h-138v709h138v-285h309v285h139v-709z" />
    <glyph glyph-name="I" unicode="I" horiz-adv-x="302" 
d="M221 0h-140v709h140v-709z" />
    <glyph glyph-name="J" unicode="J" horiz-adv-x="557" 
d="M20 216v47l133 24v-65q1 -53 27.5 -79.5t70.5 -26.5q43 0 68.5 28t25.5 75v490h138v-490q0 -98 -65 -166t-166 -68q-105 0 -168.5 63.5t-63.5 167.5z" />
    <glyph glyph-name="K" unicode="K" horiz-adv-x="698" 
d="M513 0l-206 294l-88 -97v-197h-138v709h138v-321l284 321h181l-281 -309l283 -400h-173z" />
    <glyph glyph-name="L" unicode="L" horiz-adv-x="560" 
d="M535 0h-454v709h138v-577h316v-132z" />
    <glyph glyph-name="M" unicode="M" horiz-adv-x="953" 
d="M872 0h-136v497l-204 -497h-115l-204 493v-493h-132v709h182l213 -512l208 512h188v-709z" />
    <glyph glyph-name="N" unicode="N" horiz-adv-x="767" 
d="M686 0h-145l-322 503v-503h-138v709h172l295 -469v469h138v-709z" />
    <glyph glyph-name="O" unicode="O" horiz-adv-x="807" 
d="M182 355q0 -113 66 -174.5t155 -61.5q90 0 156 61.5t66 174.5t-66 174.5t-156 61.5q-89 0 -155 -61.5t-66 -174.5zM39 354q0 166 107 268t257 102q151 0 258 -102t107 -268q0 -165 -107 -267t-258 -102q-150 0 -257 102t-107 267z" />
    <glyph glyph-name="P" unicode="P" horiz-adv-x="606" 
d="M220 386h109q51 0 81 27.5t30 73.5q0 47 -29.5 74.5t-81.5 27.5h-109v-203zM346 267h-127v-267h-138v709h265q104 0 168.5 -62t64.5 -159t-64.5 -159t-168.5 -62z" />
    <glyph glyph-name="Q" unicode="Q" horiz-adv-x="807" 
d="M39 354q0 166 107 268t257 102q151 0 258 -102t107 -268q0 -145 -87 -245l85 -94l-91 -78l-87 96q-85 -48 -185 -48q-150 0 -257 102t-107 267zM182 355q0 -113 66 -174.5t155 -61.5q49 0 91 18l-111 122l92 79l111 -124q39 58 39 141q0 113 -66 174.5t-156 61.5
q-89 0 -155 -61.5t-66 -174.5z" />
    <glyph glyph-name="R" unicode="R" horiz-adv-x="625" 
d="M431 0l-139 273h-72v-273h-139v709h277q102 0 164 -62t62 -156q0 -74 -40.5 -127.5t-110.5 -73.5l152 -290h-154zM220 392h112q52 0 81.5 27t29.5 71q0 45 -29.5 72t-81.5 27h-112v-197z" />
    <glyph glyph-name="S" unicode="S" horiz-adv-x="604" 
d="M558 540l-124 -38q-7 38 -38 69t-91 31q-49 0 -80 -26.5t-31 -63.5q0 -65 77 -80l99 -19q94 -18 146 -75t52 -134q0 -88 -69.5 -153.5t-186.5 -65.5q-67 0 -121 20t-87 53.5t-51.5 71t-22.5 77.5l128 34q5 -57 44.5 -95t110.5 -38q54 0 84.5 24t30.5 63q0 31 -22.5 53.5
t-63.5 30.5l-99 20q-86 18 -136 71t-50 132q0 94 72.5 158t174.5 64q61 0 109 -17t77 -45.5t45 -58.5t23 -63z" />
    <glyph glyph-name="T" unicode="T" horiz-adv-x="619" 
d="M603 578h-224v-578h-139v578h-224v131h587v-131z" />
    <glyph glyph-name="U" unicode="U" horiz-adv-x="693" 
d="M346 -16q-118 0 -195 70.5t-77 196.5v458h138v-448q0 -69 35.5 -105.5t98.5 -36.5q64 0 99.5 36.5t35.5 105.5v448h138v-458q0 -126 -77 -196.5t-196 -70.5z" />
    <glyph glyph-name="V" unicode="V" horiz-adv-x="687" 
d="M346 182l185 527h146l-263 -709h-142l-262 709h151z" />
    <glyph glyph-name="W" unicode="W" horiz-adv-x="1027" 
d="M746 219l128 490h141l-196 -709h-142l-162 505l-162 -505h-144l-197 709h146l130 -488l157 488h143z" />
    <glyph glyph-name="X" unicode="X" horiz-adv-x="669" 
d="M651 709l-232 -355l233 -354h-167l-153 245l-154 -245h-162l233 355l-232 354h166l152 -245l155 245h161z" />
    <glyph glyph-name="Y" unicode="Y" horiz-adv-x="655" 
d="M257 298l-247 411h162l159 -281l159 281h155l-250 -411v-298h-138v298z" />
    <glyph glyph-name="Z" unicode="Z" horiz-adv-x="640" 
d="M597 0h-558v134l369 444h-356v131h540v-129l-375 -448h380v-132z" />
    <glyph glyph-name="bracketleft" unicode="[" horiz-adv-x="317" 
d="M312 -164h-231v974h231v-101h-120v-770h120v-103z" />
    <glyph glyph-name="backslash" unicode="\" horiz-adv-x="476" 
d="M354 -9l-354 727h123l353 -727h-122z" />
    <glyph glyph-name="bracketright" unicode="]" horiz-adv-x="317" 
d="M236 -164h-231v103h119v770h-119v101h231v-974z" />
    <glyph glyph-name="asciicircum" unicode="^" horiz-adv-x="530" 
d="M514 351h-125l-123 231l-123 -231h-127l198 358h102z" />
    <glyph glyph-name="underscore" unicode="_" horiz-adv-x="523" 
d="M517 -109h-511v109h511v-109z" />
    <glyph glyph-name="grave" unicode="`" horiz-adv-x="296" 
d="M162 551l-136 150h154l90 -150h-108z" />
    <glyph glyph-name="a" unicode="a" horiz-adv-x="539" 
d="M41 134q0 63 41 101t106 48l121 18q37 5 37 35q0 28 -21.5 46t-61.5 18q-42 0 -66.5 -23t-27.5 -57l-118 25q7 64 63 113t148 49q110 0 162 -52.5t52 -134.5v-242q0 -44 6 -78h-122q-5 22 -5 59q-47 -73 -145 -73q-76 0 -122.5 44t-46.5 104zM238 85q47 0 77.5 26.5
t30.5 87.5v22l-111 -17q-61 -9 -61 -62q0 -24 17 -40.5t47 -16.5z" />
    <glyph glyph-name="b" unicode="b" horiz-adv-x="612" 
d="M200 0h-129v724h131v-286q18 28 57.5 47.5t91.5 19.5q105 0 166 -72t61 -185t-64 -186.5t-168 -73.5q-101 0 -146 72v-60zM445 247q0 65 -34.5 102t-87.5 37t-88 -37t-35 -102t35.5 -102.5t87.5 -37.5q53 0 87.5 37.5t34.5 102.5z" />
    <glyph glyph-name="c" unicode="c" horiz-adv-x="550" 
d="M292 384q-53 0 -89 -37t-36 -101t36.5 -101.5t89.5 -37.5q47 0 75 24.5t38 58.5l117 -39q-18 -68 -78 -117t-152 -49q-110 0 -184.5 74.5t-74.5 186.5q0 113 73.5 187t181.5 74q94 0 154 -48.5t77 -117.5l-119 -40q-24 83 -109 83z" />
    <glyph glyph-name="d" unicode="d" horiz-adv-x="613" 
d="M540 724v-635q0 -49 4 -89h-127q-5 25 -5 57q-17 -31 -53.5 -50t-84.5 -19q-105 0 -172.5 73.5t-67.5 185.5q0 109 66.5 183t169.5 74q106 0 139 -61v281h131zM168 247q0 -65 34 -102.5t88 -37.5q53 0 87 38t34 103q0 64 -34 100.5t-87 36.5t-87.5 -37t-34.5 -101z" />
    <glyph glyph-name="e" unicode="e" horiz-adv-x="553" 
d="M168 302h220q-2 41 -29.5 69t-80.5 28q-48 0 -78 -30t-32 -67zM401 174l111 -33q-20 -68 -78.5 -112t-145.5 -44q-106 0 -180 71.5t-74 191.5q0 114 72 186.5t170 72.5q114 0 178.5 -68t64.5 -187q0 -8 -0.5 -18t-0.5 -16l-1 -7h-352q2 -48 38 -80t86 -32q85 0 112 75z
" />
    <glyph glyph-name="f" unicode="f" horiz-adv-x="356" 
d="M299 614q-28 0 -48.5 -15.5t-20.5 -52.5v-54h111v-114h-111v-378h-134v378h-82v114h82v56q0 83 48.5 133t130.5 50q44 0 66 -10v-112q-17 5 -42 5z" />
    <glyph glyph-name="g" unicode="g" horiz-adv-x="597" 
d="M36 -27l120 32q7 -41 38 -67t77 -26q131 0 131 137v36q-17 -27 -52 -45t-85 -18q-98 0 -163.5 68t-65.5 171q0 100 65 170t164 70q54 0 90 -19.5t50 -47.5v58h128v-439q0 -111 -64 -184.5t-194 -73.5q-97 0 -162.5 52t-76.5 126zM288 136q51 0 83.5 34t32.5 91
q0 56 -33.5 90t-82.5 34q-51 0 -84.5 -34t-33.5 -90q0 -57 33 -91t85 -34z" />
    <glyph glyph-name="h" unicode="h" horiz-adv-x="584" 
d="M204 289v-289h-133v724h133v-273q45 54 133 54q90 0 136.5 -54.5t46.5 -140.5v-310h-133v287q0 44 -22.5 71t-68.5 27q-41 0 -65.5 -27t-26.5 -69z" />
    <glyph glyph-name="i" unicode="i" horiz-adv-x="275" 
d="M204 0h-133v492h133v-492zM55 653q0 34 24 58.5t58 24.5t58 -24t24 -59q0 -33 -24 -57t-58 -24t-58 24t-24 57z" />
    <glyph glyph-name="j" unicode="j" horiz-adv-x="275" 
d="M71 -30v522h133v-535q0 -72 -42 -117t-112 -45q-49 0 -75 11v111q22 -5 41 -5q55 0 55 58zM55 654q0 34 24 58.5t58 24.5t58 -24t24 -59q0 -34 -24 -57.5t-58 -23.5t-58 23.5t-24 57.5z" />
    <glyph glyph-name="k" unicode="k" horiz-adv-x="559" 
d="M548 492l-197 -207l201 -285h-163l-130 188l-55 -58v-130h-133v724h133v-415l170 183h174z" />
    <glyph glyph-name="l" unicode="l" horiz-adv-x="275" 
d="M204 0h-133v724h133v-724z" />
    <glyph glyph-name="m" unicode="m" horiz-adv-x="886" 
d="M204 0h-133v492h127v-60q19 34 60 54t84 20q107 0 146 -82q53 82 156 82q75 0 126.5 -47t51.5 -140v-319h-129v292q0 42 -21.5 67.5t-65.5 25.5q-41 0 -66 -28t-25 -69v-288h-132v292q0 42 -22 67.5t-65 25.5q-42 0 -67 -27.5t-25 -69.5v-288z" />
    <glyph glyph-name="n" unicode="n" horiz-adv-x="584" 
d="M204 283v-283h-133v492h129v-61q21 36 60 55t82 19q87 0 132.5 -54.5t45.5 -140.5v-310h-133v287q0 44 -22.5 71t-68.5 27q-42 0 -67 -29t-25 -73z" />
    <glyph glyph-name="o" unicode="o" horiz-adv-x="584" 
d="M292 106q52 0 88.5 37t36.5 103t-36.5 103t-88.5 37t-88.5 -37t-36.5 -103t36.5 -103t88.5 -37zM292 507q111 0 184.5 -74t73.5 -187t-73.5 -187t-184.5 -74t-184.5 74t-73.5 187t73.5 187t184.5 74z" />
    <glyph glyph-name="p" unicode="p" horiz-adv-x="612" 
d="M204 -190h-133v682h129v-60q18 30 58 50.5t93 20.5q105 0 166 -71.5t61 -184.5t-64.5 -186t-167.5 -73q-98 0 -142 60v-238zM447 246q0 64 -34.5 101t-87.5 37t-88 -37.5t-35 -100.5t35 -101t88 -38t87.5 37.5t34.5 101.5z" />
    <glyph glyph-name="q" unicode="q" horiz-adv-x="608" 
d="M541 -190h-130v239q-38 -61 -137 -61q-104 0 -172 73.5t-68 185.5q0 110 65.5 183.5t170.5 73.5q58 0 94.5 -21.5t49.5 -47.5v57h127v-682zM168 247q0 -64 34.5 -102t87.5 -38t87.5 38t34.5 102t-34.5 101t-87.5 37t-87.5 -37t-34.5 -101z" />
    <glyph glyph-name="r" unicode="r" horiz-adv-x="391" 
d="M371 494v-134q-20 4 -40 4q-57 0 -92 -32.5t-35 -106.5v-225h-133v492h129v-73q36 77 140 77q11 0 31 -2z" />
    <glyph glyph-name="s" unicode="s" horiz-adv-x="461" 
d="M29 137l114 25q2 -32 25.5 -53.5t64.5 -21.5q31 0 48 14t17 35q0 37 -53 48l-65 15q-69 15 -103.5 54t-34.5 93q0 67 52.5 114t131.5 47q50 0 88 -14.5t59 -37t32 -45.5t14 -45l-111 -25q-4 26 -23.5 46t-57.5 20q-26 0 -44.5 -14t-18.5 -35q0 -36 45 -44l70 -15
q71 -15 108.5 -55t37.5 -96q0 -66 -50 -114t-141 -48q-52 0 -93 15.5t-63.5 40t-34 49t-14.5 47.5z" />
    <glyph glyph-name="t" unicode="t" horiz-adv-x="373" 
d="M235 639v-147h99v-118h-99v-206q0 -31 14 -44t44 -13q27 0 41 4v-110q-29 -12 -75 -12q-72 0 -114 40.5t-42 111.5v229h-89v118h25q37 0 56.5 21.5t19.5 56.5v69h120z" />
    <glyph glyph-name="u" unicode="u" horiz-adv-x="586" 
d="M393 0q-4 20 -4 53q-19 -33 -56.5 -49.5t-79.5 -16.5q-87 0 -137 55.5t-50 138.5v311h133v-284q0 -44 23 -71.5t67 -27.5q43 0 68 26.5t25 70.5v286h133v-403q0 -47 5 -89h-127z" />
    <glyph glyph-name="v" unicode="v" horiz-adv-x="545" 
d="M535 492l-191 -492h-133l-201 492h146l122 -330l117 330h140z" />
    <glyph glyph-name="w" unicode="w" horiz-adv-x="831" 
d="M350 492h140l106 -317l91 317h132l-154 -492h-133l-115 336l-113 -336h-135l-157 492h140l91 -316z" />
    <glyph glyph-name="x" unicode="x" horiz-adv-x="532" 
d="M12 0l175 247l-175 245h158q9 -13 49.5 -72.5t48.5 -73.5l97 146h151l-172 -241l178 -251h-156l-103 151q-5 -8 -28.5 -43t-44 -65.5t-28.5 -42.5h-150z" />
    <glyph glyph-name="y" unicode="y" horiz-adv-x="560" 
d="M241 -194h-141l116 256l-209 430h149l131 -288l121 288h142z" />
    <glyph glyph-name="z" unicode="z" horiz-adv-x="481" 
d="M444 0h-407v117l233 260h-227v115h397v-111l-240 -265h244v-116z" />
    <glyph glyph-name="braceleft" unicode="{" horiz-adv-x="375" 
d="M45 271v111q100 0 100 93v142q0 96 51 144.5t143 48.5h31v-101h-30q-83 0 -83 -89v-168q0 -47 -26.5 -80t-74.5 -46q48 -12 74.5 -45t26.5 -81v-167q0 -90 83 -90h30v-101h-31q-92 0 -143 49t-51 145v142q0 93 -100 93z" />
    <glyph glyph-name="bar" unicode="|" horiz-adv-x="273" 
d="M192 -158h-111v968h111v-968z" />
    <glyph glyph-name="braceright" unicode="}" horiz-adv-x="375" 
d="M330 382v-111q-101 0 -101 -93v-142q0 -96 -51 -145t-142 -49h-31v101h29q84 0 84 90v167q0 48 26.5 81t73.5 45q-48 13 -74 46t-26 80v168q0 89 -84 89h-29v101h31q92 0 142.5 -48.5t50.5 -144.5v-142q0 -93 101 -93z" />
    <glyph glyph-name="asciitilde" unicode="~" horiz-adv-x="583" 
d="M286 233l-47 26q-25 13 -50 13q-54 0 -89 -52l-74 59q57 105 166 105q52 0 104 -28l47 -26q24 -14 53 -14q55 0 88 51l73 -59q-57 -104 -165 -104q-55 0 -106 29z" />
    <glyph glyph-name="uni00A0" unicode="&#xa0;" horiz-adv-x="247" 
 />
    <glyph glyph-name="exclamdown" unicode="&#xa1;" horiz-adv-x="302" 
d="M200 283l31 -493h-160l32 493h97zM72 428q0 32 23 55.5t56 23.5q32 0 55.5 -23.5t23.5 -55.5q0 -33 -23.5 -56.5t-55.5 -23.5q-33 0 -56 23.5t-23 56.5z" />
    <glyph glyph-name="cent" unicode="&#xa2;" horiz-adv-x="549" 
d="M332 0h-101v87q-84 18 -137 82.5t-53 152.5q0 90 53 154.5t137 81.5v91h101v-90q70 -11 114 -52.5t59 -96.5l-113 -37q-24 77 -104 77q-51 0 -85.5 -34t-34.5 -94q0 -59 35 -93.5t86 -34.5q44 0 71 23t36 54l112 -36q-16 -55 -61.5 -97.5t-114.5 -53.5v-84z" />
    <glyph glyph-name="sterling" unicode="&#xa3;" horiz-adv-x="592" 
d="M63 375h61q-18 50 -18 95q0 79 59 136.5t154 57.5q107 0 158 -57.5t52 -131.5l-120 -18q-1 45 -24 70t-64 25q-36 0 -61 -21.5t-25 -62.5q0 -36 22 -93h183v-102h-151q0 -3 0.5 -10t0.5 -11q0 -92 -72 -136h155q37 0 59 23.5t22 60.5l119 -10q0 -83 -49.5 -136.5
t-129.5 -53.5h-335v111q49 18 77.5 51t28.5 76q0 13 -4 35h-98v102z" />
    <glyph glyph-name="currency" unicode="&#xa4;" horiz-adv-x="587" 
d="M78 245q0 59 30 108l-72 73l80 80l74 -75q51 27 105 27q56 0 103 -26l73 74l80 -80l-71 -71q31 -50 31 -110q0 -58 -30 -109l70 -71l-80 -80l-72 73q-47 -26 -104 -26q-59 0 -107 27l-72 -74l-80 80l71 72q-29 52 -29 108zM190 245q0 -46 29.5 -75.5t75.5 -29.5
t75.5 29.5t29.5 75.5t-29.5 75.5t-75.5 29.5t-75.5 -29.5t-29.5 -75.5z" />
    <glyph glyph-name="yen" unicode="&#xa5;" horiz-adv-x="614" 
d="M553 135h-180v-135h-130v135h-173v94h173v70h-173v93h107l-155 257h151l138 -245l136 245h145l-154 -257h115v-93h-180v-70h180v-94z" />
    <glyph glyph-name="brokenbar" unicode="&#xa6;" horiz-adv-x="273" 
d="M81 810h111v-398h-111v398zM81 240h111v-398h-111v398z" />
    <glyph glyph-name="section" unicode="&#xa7;" horiz-adv-x="561" 
d="M491 251q0 -83 -77 -125q77 -56 77 -143q0 -85 -63.5 -138.5t-148.5 -53.5q-96 0 -152 51t-60 136l125 21q0 -46 23.5 -70.5t64.5 -24.5q34 0 55.5 19.5t21.5 50.5q0 39 -44 62l-102 53q-67 35 -104 73.5t-37 101.5q0 83 77 125q-77 56 -77 143q0 85 63.5 138.5
t149.5 53.5q95 0 151.5 -52t59.5 -135l-126 -21q0 47 -23 71t-63 24q-35 0 -56.5 -19.5t-21.5 -50.5q0 -42 44 -62l101 -52q68 -36 105 -74.5t37 -101.5zM326 292l-102 54q-32 -25 -32 -57q0 -44 43 -66l102 -54q32 25 32 57q0 43 -43 66z" />
    <glyph glyph-name="dieresis" unicode="&#xa8;" horiz-adv-x="405" 
d="M27 628q0 29 20.5 50t49.5 21t50 -21t21 -50t-21 -49.5t-50 -20.5t-49.5 20.5t-20.5 49.5zM237 628q0 30 20 50.5t50 20.5q29 0 50 -21t21 -50t-21 -49.5t-50 -20.5q-30 0 -50 20.5t-20 49.5z" />
    <glyph glyph-name="copyright" unicode="&#xa9;" horiz-adv-x="816" 
d="M124 354q0 -122 82 -206.5t201 -84.5t201 84.5t82 206.5q0 123 -82 207.5t-201 84.5t-201 -84.5t-82 -207.5zM39 354q0 153 107.5 262t260.5 109t261.5 -109t108.5 -262q0 -152 -108.5 -261t-261.5 -109t-260.5 108.5t-107.5 261.5zM411 458q-40 0 -67.5 -28t-27.5 -77
t27.5 -77.5t68.5 -28.5q36 0 57.5 19t28.5 45l89 -30q-14 -52 -59.5 -89t-115.5 -37q-83 0 -140 56.5t-57 141.5q0 86 56 142.5t138 56.5q71 0 117 -37t59 -89l-91 -31q-18 63 -83 63z" />
    <glyph glyph-name="ordfeminine" unicode="&#xaa;" horiz-adv-x="423" 
d="M55 397q0 88 103 104l83 14q25 4 25 24q0 17 -14 28t-39 11q-28 0 -44 -15t-18 -37l-89 18q3 44 43 79.5t108 35.5q78 0 115 -37.5t37 -95.5v-170q0 -29 5 -54h-93q-3 15 -3 40q-33 -50 -100 -50q-54 0 -86.5 31t-32.5 74zM198 366q29 0 48.5 17t19.5 56v16l-70 -11
q-40 -5 -40 -41q0 -15 11 -26t31 -11z" />
    <glyph glyph-name="guillemotleft" unicode="&#xab;" horiz-adv-x="524" 
d="M290 101h-126l-137 194l138 197h125l-136 -198zM506 101h-126l-136 194l137 197h126l-137 -198z" />
    <glyph glyph-name="logicalnot" unicode="&#xac;" horiz-adv-x="590" 
d="M534 136h-114v195h-375v110h489v-305z" />
    <glyph glyph-name="uni00AD" unicode="&#xad;" horiz-adv-x="380" 
d="M335 238h-290v118h290v-118z" />
    <glyph glyph-name="registered" unicode="&#xae;" horiz-adv-x="816" 
d="M39 354q0 153 107.5 262t260.5 109t261.5 -109t108.5 -262q0 -152 -108.5 -261t-261.5 -109t-260.5 108.5t-107.5 261.5zM124 354q0 -122 82 -206.5t201 -84.5t201 84.5t82 206.5q0 123 -82 207.5t-201 84.5t-201 -84.5t-82 -207.5zM467 157l-69 139h-29v-139h-95v400
h158q58 0 97.5 -38t39.5 -92q0 -39 -21 -70t-56 -46l80 -154h-105zM369 374h46q27 0 42.5 14t15.5 38q0 25 -15.5 39t-42.5 14h-46v-105z" />
    <glyph glyph-name="macron" unicode="&#xaf;" horiz-adv-x="335" 
d="M308 577h-281v97h281v-97z" />
    <glyph glyph-name="degree" unicode="&#xb0;" horiz-adv-x="373" 
d="M120 499q0 -31 19 -50.5t47 -19.5q29 0 47.5 19.5t18.5 50.5t-18.5 50t-47.5 19q-28 0 -47 -19.5t-19 -49.5zM20 499q0 68 49 116t117 48t117.5 -48t49.5 -116q0 -69 -49.5 -116t-117.5 -47q-69 0 -117.5 47.5t-48.5 115.5z" />
    <glyph glyph-name="plusminus" unicode="&#xb1;" horiz-adv-x="592" 
d="M62 421h178v123h112v-123h178v-108h-178v-123h-112v123h-178v108zM62 153h468v-109h-468v109z" />
    <glyph glyph-name="twosuperior" unicode="&#xb2;" horiz-adv-x="394" 
d="M149 565l-91 -1q-4 14 -4 29q0 54 38 89t106 35q65 0 103.5 -35t38.5 -87q0 -65 -79 -112l-70 -42q-12 -7 -12 -15h164v-85h-291v12q0 104 89 157l60 35q38 23 38 51q0 15 -11 27t-31 12q-23 0 -37 -13.5t-14 -38.5q0 -9 3 -18z" />
    <glyph glyph-name="threesuperior" unicode="&#xb3;" horiz-adv-x="411" 
d="M51 448l91 21q2 -23 19 -38t42 -15q24 0 39 12.5t15 31.5q0 22 -15.5 33.5t-37.5 11.5q-18 0 -32 -6l-33 68l87 59h-161v83h284v-82l-90 -61q46 -6 73.5 -34t27.5 -74q0 -52 -43 -88.5t-114 -36.5q-64 0 -105 34t-47 81z" />
    <glyph glyph-name="acute" unicode="&#xb4;" horiz-adv-x="295" 
d="M269 701l-136 -150h-107l91 150h152z" />
    <glyph glyph-name="mu" unicode="&#xb5;" horiz-adv-x="594" 
d="M399 0q-4 20 -4 53q-19 -33 -56.5 -49.5t-79.5 -16.5q-32 0 -54 7v-184h-133v682h133v-284q0 -44 23 -71.5t67 -27.5q43 0 68 26.5t25 70.5v286h133v-403q0 -57 5 -89h-127z" />
    <glyph glyph-name="paragraph" unicode="&#xb6;" horiz-adv-x="666" 
d="M351 607v-801h-104v495h-17q-84 0 -144 58t-60 142q0 97 68 152.5t169 55.5h387v-102h-97v-801h-106v801h-96z" />
    <glyph glyph-name="periodcentered" unicode="&#xb7;" horiz-adv-x="288" 
d="M61 309q0 36 25 60.5t61 24.5t61 -24.5t25 -60.5t-25 -60t-61 -24t-61 24t-25 60z" />
    <glyph glyph-name="cedilla" unicode="&#xb8;" horiz-adv-x="298" 
d="M119 -108l-36 45l48 76h83l-39 -61q43 -1 70 -25t27 -61q0 -39 -31.5 -67t-96.5 -28q-39 0 -71 15.5t-48 36.5l43 54q37 -37 75 -37q41 0 41 28q0 12 -10.5 20t-27.5 8q-16 0 -27 -4z" />
    <glyph glyph-name="onesuperior" unicode="&#xb9;" horiz-adv-x="303" 
d="M232 342h-103v223h-91v66q44 0 70.5 23.5t32.5 54.5h91v-367z" />
    <glyph glyph-name="ordmasculine" unicode="&#xba;" horiz-adv-x="482" 
d="M242 385q34 0 57.5 24t23.5 67t-23.5 66.5t-57.5 23.5t-57.5 -23.5t-23.5 -66.5t23.5 -67t57.5 -24zM242 659q78 0 130.5 -51.5t52.5 -131.5t-52.5 -132t-130.5 -52q-79 0 -131.5 52t-52.5 132t52.5 131.5t131.5 51.5z" />
    <glyph glyph-name="guillemotright" unicode="&#xbb;" horiz-adv-x="524" 
d="M360 101h-126l136 193l-136 198h125l138 -197zM144 101h-126l135 193l-136 198h125l138 -197z" />
    <glyph glyph-name="onequarter" unicode="&#xbc;" horiz-adv-x="808" 
d="M240 282h-103v223h-91v66q44 0 70.5 23.5t32.5 54.5h91v-367zM429 71v99l169 198h109v-218h61v-79h-61v-71h-100v71h-178zM607 150v114l-97 -114h97zM213 0h-116l458 649h116z" />
    <glyph glyph-name="onehalf" unicode="&#xbd;" horiz-adv-x="826" 
d="M240 282h-103v223h-91v66q44 0 70.5 23.5t32.5 54.5h91v-367zM212 0h-116l458 649h116zM586 224l-91 -1q-4 14 -4 29q0 54 38 89t106 35q65 0 103.5 -35t38.5 -87q0 -65 -79 -112l-70 -42q-12 -7 -12 -15h164v-85h-291v12q0 104 89 157l60 35q38 23 38 51q0 15 -11 27
t-31 12q-24 0 -37.5 -14t-13.5 -38q0 -9 3 -18z" />
    <glyph glyph-name="threequarters" unicode="&#xbe;" horiz-adv-x="884" 
d="M50 388l91 21q2 -23 19 -38t42 -15q24 0 39 12.5t15 31.5q0 22 -15.5 33.5t-37.5 11.5q-18 0 -32 -6l-33 68l87 59h-161v83h284v-82l-90 -61q46 -6 73.5 -34t27.5 -74q0 -52 -43 -88.5t-114 -36.5q-64 0 -105 34t-47 81zM505 71v99l169 198h109v-218h61v-79h-61v-71h-100
v71h-178zM683 150v114l-97 -114h97zM296 0h-116l458 649h116z" />
    <glyph glyph-name="questiondown" unicode="&#xbf;" horiz-adv-x="493" 
d="M206 284h108q3 -20 3 -41q0 -90 -77 -146l-48 -35q-42 -31 -42 -79q0 -37 25.5 -63t73.5 -26q50 0 76.5 31t26.5 75q0 25 -6 41l128 -12q5 -23 5 -44q0 -86 -61.5 -148t-168.5 -62q-110 0 -172.5 59t-62.5 140q0 109 97 178l41 29q54 38 54 97v6zM179 428q0 33 23.5 56
t56.5 23t56 -23t23 -56t-23 -56t-56 -23t-56.5 23t-23.5 56z" />
    <glyph glyph-name="Agrave" unicode="&#xc0;" horiz-adv-x="722" 
d="M562 0l-59 162h-288l-59 -162h-146l272 709h160l270 -709h-150zM359 556l-98 -268h196zM310 759l-145 127h163l104 -127h-122z" />
    <glyph glyph-name="Aacute" unicode="&#xc1;" horiz-adv-x="722" 
d="M562 0l-59 162h-288l-59 -162h-146l272 709h160l270 -709h-150zM359 556l-98 -268h196zM558 886l-145 -127h-122l103 127h164z" />
    <glyph glyph-name="Acircumflex" unicode="&#xc2;" horiz-adv-x="722" 
d="M562 0l-59 162h-288l-59 -162h-146l272 709h160l270 -709h-150zM359 556l-98 -268h196zM291 759h-121l120 127h136l122 -127h-125l-67 65z" />
    <glyph glyph-name="Atilde" unicode="&#xc3;" horiz-adv-x="722" 
d="M562 0l-59 162h-288l-59 -162h-146l272 709h160l270 -709h-150zM359 556l-98 -268h196zM525 890v-28q0 -52 -28.5 -81t-72.5 -29q-38 0 -75 24l-6 4q-33 20 -48 20q-29 0 -29 -43h-80v27q0 53 29 81t72 28q36 0 76 -23l6 -4q38 -19 47 -19q29 0 29 31v12h80z" />
    <glyph glyph-name="Adieresis" unicode="&#xc4;" horiz-adv-x="722" 
d="M128 823q0 30 20.5 51t50.5 21q31 0 52 -21t21 -51q0 -31 -21 -51.5t-52 -20.5t-51 20.5t-20 51.5zM446 823q0 30 20.5 51t51.5 21t52 -21t21 -51q0 -31 -21 -51.5t-52 -20.5t-51.5 20.5t-20.5 51.5zM562 0l-59 162h-288l-59 -162h-146l272 709h160l270 -709h-150z
M359 556l-98 -268h196z" />
    <glyph glyph-name="Aring" unicode="&#xc5;" horiz-adv-x="722" 
d="M409 759q0 23 -14.5 37t-35.5 14t-35.5 -14t-14.5 -37q0 -22 14.5 -36t35.5 -14t35.5 14t14.5 36zM359 556l-98 -268h196zM562 0l-59 162h-288l-59 -162h-146l255 664q-42 39 -42 95q0 57 40.5 94.5t95.5 37.5t95.5 -37.5t40.5 -94.5q0 -53 -38 -91l255 -668h-150z" />
    <glyph glyph-name="AE" unicode="&#xc6;" horiz-adv-x="1060" 
d="M1003 0h-445v167h-274l-107 -167h-169l470 709h524v-130h-305v-162h276v-123h-276v-164h306v-130zM358 283h200v312z" />
    <glyph glyph-name="Ccedilla" unicode="&#xc7;" horiz-adv-x="764" 
d="M370 -108l-36 45l32 50q-140 12 -233.5 112t-93.5 255q0 164 106.5 267t254.5 103q136 0 218.5 -69t106.5 -166l-130 -41q-15 60 -63 101.5t-132 41.5q-87 0 -152.5 -62t-65.5 -175q0 -108 64.5 -171t155.5 -63q83 0 132.5 43t66.5 102l129 -39q-14 -54 -46 -102.5
t-93.5 -88t-141.5 -47.5l-23 -36q43 -1 70 -25t27 -61q0 -39 -31.5 -67t-96.5 -28q-39 0 -71 15.5t-48 36.5l43 54q37 -37 75 -37q41 0 41 28q0 12 -10.5 20t-27.5 8q-18 0 -27 -4z" />
    <glyph glyph-name="Egrave" unicode="&#xc8;" horiz-adv-x="582" 
d="M273 759l-145 127h163l104 -127h-122zM525 0h-444v709h444v-130h-306v-162h277v-123h-277v-164h306v-130z" />
    <glyph glyph-name="Eacute" unicode="&#xc9;" horiz-adv-x="582" 
d="M491 886l-145 -127h-122l103 127h164zM525 0h-444v709h444v-130h-306v-162h277v-123h-277v-164h306v-130z" />
    <glyph glyph-name="Ecircumflex" unicode="&#xca;" horiz-adv-x="582" 
d="M233 759h-121l120 127h136l122 -127h-125l-67 65zM525 0h-444v709h444v-130h-306v-162h277v-123h-277v-164h306v-130z" />
    <glyph glyph-name="Edieresis" unicode="&#xcb;" horiz-adv-x="582" 
d="M121 823q0 30 20.5 51t50.5 21q31 0 52 -21t21 -51q0 -31 -21 -51.5t-52 -20.5t-51 20.5t-20 51.5zM346 823q0 30 20.5 51t50.5 21q31 0 52 -21t21 -51q0 -31 -21 -51.5t-52 -20.5t-51 20.5t-20 51.5zM525 0h-444v709h444v-130h-306v-162h277v-123h-277v-164h306v-130z
" />
    <glyph glyph-name="Igrave" unicode="&#xcc;" horiz-adv-x="302" 
d="M221 0h-140v709h140v-709zM97 759l-145 127h163l104 -127h-122z" />
    <glyph glyph-name="Iacute" unicode="&#xcd;" horiz-adv-x="302" 
d="M221 0h-140v709h140v-709zM350 886l-145 -127h-122l103 127h164z" />
    <glyph glyph-name="Icircumflex" unicode="&#xce;" horiz-adv-x="302" 
d="M221 0h-140v709h140v-709zM87 759h-121l120 127h136l122 -127h-125l-67 65z" />
    <glyph glyph-name="Idieresis" unicode="&#xcf;" horiz-adv-x="302" 
d="M-12 823q0 30 19.5 50t49.5 20q29 0 50 -20.5t21 -49.5q0 -30 -20.5 -50t-50.5 -20t-49.5 20t-19.5 50zM177 823q0 29 20 49.5t49 20.5q30 0 50.5 -20.5t20.5 -49.5q0 -30 -20.5 -50t-50.5 -20q-29 0 -49 20t-20 50zM221 0h-140v709h140v-709z" />
    <glyph glyph-name="Eth" unicode="&#xd0;" horiz-adv-x="747" 
d="M357 0h-253v315h-88v102h88v292h254q155 0 252.5 -95t97.5 -260q0 -164 -98 -259t-253 -95zM242 128h110q93 0 153 58t60 168t-60 168.5t-152 58.5h-111v-164h137v-102h-137v-187z" />
    <glyph glyph-name="Ntilde" unicode="&#xd1;" horiz-adv-x="767" 
d="M555 890v-28q0 -52 -28.5 -81t-72.5 -29q-38 0 -75 24l-6 4q-33 20 -48 20q-29 0 -29 -43h-80v27q0 53 29 81t72 28q36 0 76 -23l6 -4q38 -19 47 -19q29 0 29 31v12h80zM686 0h-145l-322 503v-503h-138v709h172l295 -469v469h138v-709z" />
    <glyph glyph-name="Ograve" unicode="&#xd2;" horiz-adv-x="807" 
d="M346 759l-145 127h163l104 -127h-122zM182 355q0 -113 66 -174.5t155 -61.5q90 0 156 61.5t66 174.5t-66 174.5t-156 61.5q-89 0 -155 -61.5t-66 -174.5zM39 354q0 166 107 268t257 102q151 0 258 -102t107 -268q0 -165 -107 -267t-258 -102q-150 0 -257 102t-107 267z
" />
    <glyph glyph-name="Oacute" unicode="&#xd3;" horiz-adv-x="807" 
d="M600 886l-145 -127h-122l103 127h164zM182 355q0 -113 66 -174.5t155 -61.5q90 0 156 61.5t66 174.5t-66 174.5t-156 61.5q-89 0 -155 -61.5t-66 -174.5zM39 354q0 166 107 268t257 102q151 0 258 -102t107 -268q0 -165 -107 -267t-258 -102q-150 0 -257 102t-107 267z
" />
    <glyph glyph-name="Ocircumflex" unicode="&#xd4;" horiz-adv-x="807" 
d="M336 759h-121l120 127h136l122 -127h-125l-67 65zM182 355q0 -113 66 -174.5t155 -61.5q90 0 156 61.5t66 174.5t-66 174.5t-156 61.5q-89 0 -155 -61.5t-66 -174.5zM39 354q0 166 107 268t257 102q151 0 258 -102t107 -268q0 -165 -107 -267t-258 -102q-150 0 -257 102
t-107 267z" />
    <glyph glyph-name="Otilde" unicode="&#xd5;" horiz-adv-x="807" 
d="M571 890v-28q0 -52 -28.5 -81t-72.5 -29q-38 0 -75 24l-6 4q-33 20 -48 20q-29 0 -29 -43h-80v27q0 53 29 81t72 28q36 0 76 -23l6 -4q38 -19 47 -19q29 0 29 31v12h80zM182 355q0 -113 66 -174.5t155 -61.5q90 0 156 61.5t66 174.5t-66 174.5t-156 61.5
q-89 0 -155 -61.5t-66 -174.5zM39 354q0 166 107 268t257 102q151 0 258 -102t107 -268q0 -165 -107 -267t-258 -102q-150 0 -257 102t-107 267z" />
    <glyph glyph-name="Odieresis" unicode="&#xd6;" horiz-adv-x="807" 
d="M165 823q0 30 20.5 51t51.5 21t52 -21t21 -51q0 -31 -21 -51.5t-52 -20.5t-51.5 20.5t-20.5 51.5zM498 823q0 30 20.5 51t51.5 21q30 0 51 -21t21 -51q0 -31 -21 -51.5t-51 -20.5q-31 0 -51.5 20.5t-20.5 51.5zM182 355q0 -113 66 -174.5t155 -61.5q90 0 156 61.5
t66 174.5t-66 174.5t-156 61.5q-89 0 -155 -61.5t-66 -174.5zM39 354q0 166 107 268t257 102q151 0 258 -102t107 -268q0 -165 -107 -267t-258 -102q-150 0 -257 102t-107 267z" />
    <glyph glyph-name="multiply" unicode="&#xd7;" horiz-adv-x="563" 
d="M447 47l-166 168l-165 -167l-79 79l165 168l-165 168l80 79l164 -167l165 167l80 -78l-166 -169l166 -168z" />
    <glyph glyph-name="Oslash" unicode="&#xd8;" horiz-adv-x="807" 
d="M39 354q0 166 107 268t257 102q98 0 181 -46l70 90l88 -66l-70 -91q96 -103 96 -257q0 -165 -107 -267t-258 -102q-97 0 -181 45l-68 -88l-90 65l71 91q-96 103 -96 256zM182 355q0 -86 40 -144l278 359q-45 21 -97 21q-89 0 -155 -61.5t-66 -174.5zM625 355
q0 86 -40 144l-278 -359q45 -21 96 -21q90 0 156 61.5t66 174.5z" />
    <glyph glyph-name="Ugrave" unicode="&#xd9;" horiz-adv-x="693" 
d="M303 759l-145 127h163l104 -127h-122zM346 -16q-118 0 -195 70.5t-77 196.5v458h138v-448q0 -69 35.5 -105.5t98.5 -36.5q64 0 99.5 36.5t35.5 105.5v448h138v-458q0 -126 -77 -196.5t-196 -70.5z" />
    <glyph glyph-name="Uacute" unicode="&#xda;" horiz-adv-x="693" 
d="M528 886l-145 -127h-122l103 127h164zM346 -16q-118 0 -195 70.5t-77 196.5v458h138v-448q0 -69 35.5 -105.5t98.5 -36.5q64 0 99.5 36.5t35.5 105.5v448h138v-458q0 -126 -77 -196.5t-196 -70.5z" />
    <glyph glyph-name="Ucircumflex" unicode="&#xdb;" horiz-adv-x="693" 
d="M279 759h-121l120 127h136l122 -127h-125l-67 65zM346 -16q-118 0 -195 70.5t-77 196.5v458h138v-448q0 -69 35.5 -105.5t98.5 -36.5q64 0 99.5 36.5t35.5 105.5v448h138v-458q0 -126 -77 -196.5t-196 -70.5z" />
    <glyph glyph-name="Udieresis" unicode="&#xdc;" horiz-adv-x="693" 
d="M155 823q0 30 20.5 51t51.5 21q30 0 51 -21t21 -51q0 -31 -21 -51.5t-51 -20.5q-31 0 -51.5 20.5t-20.5 51.5zM395 823q0 30 20.5 51t51.5 21q30 0 51 -21t21 -51q0 -31 -21 -51.5t-51 -20.5q-31 0 -51.5 20.5t-20.5 51.5zM346 -16q-118 0 -195 70.5t-77 196.5v458h138
v-448q0 -69 35.5 -105.5t98.5 -36.5q64 0 99.5 36.5t35.5 105.5v448h138v-458q0 -126 -77 -196.5t-196 -70.5z" />
    <glyph glyph-name="Yacute" unicode="&#xdd;" horiz-adv-x="655" 
d="M257 298l-247 411h162l159 -281l159 281h155l-250 -411v-298h-138v298zM516 886l-145 -127h-122l103 127h164z" />
    <glyph glyph-name="Thorn" unicode="&#xde;" horiz-adv-x="604" 
d="M220 257h109q51 0 81 27.5t30 73.5q0 47 -29.5 75t-81.5 28h-109v-204zM342 139h-123v-139h-138v709h138v-129h122q102 0 170 -63t68 -158q0 -94 -68 -157t-169 -63z" />
    <glyph glyph-name="germandbls" unicode="&#xdf;" horiz-adv-x="596" 
d="M401 343q1 -13 9 -19.5t28 -15.5l30 -13q51 -21 81.5 -61.5t30.5 -92.5q0 -59 -45.5 -107.5t-132.5 -48.5q-82 0 -125 45.5t-43 97.5l107 21q0 -24 15.5 -43.5t46.5 -19.5q24 0 38.5 14t14.5 32q0 36 -48 56l-30 12q-110 45 -110 134q0 73 67 116l20 13q49 31 49 72
q0 30 -24 51t-70 21q-47 0 -77.5 -32.5t-30.5 -97.5v-477h-131v486q0 115 69 176.5t170 61.5t163.5 -53t62.5 -130q0 -93 -88 -150l-20 -12q-27 -17 -27 -36z" />
    <glyph glyph-name="agrave" unicode="&#xe0;" horiz-adv-x="539" 
d="M41 134q0 63 41 101t106 48l121 18q37 5 37 35q0 28 -21.5 46t-61.5 18q-42 0 -66.5 -23t-27.5 -57l-118 25q7 64 63 113t148 49q110 0 162 -52.5t52 -134.5v-242q0 -44 6 -78h-122q-5 22 -5 59q-47 -73 -145 -73q-76 0 -122.5 44t-46.5 104zM238 85q47 0 77.5 26.5
t30.5 87.5v22l-111 -17q-61 -9 -61 -62q0 -24 17 -40.5t47 -16.5zM227 551l-136 150h154l90 -150h-108z" />
    <glyph glyph-name="aacute" unicode="&#xe1;" horiz-adv-x="539" 
d="M41 134q0 63 41 101t106 48l121 18q37 5 37 35q0 28 -21.5 46t-61.5 18q-42 0 -66.5 -23t-27.5 -57l-118 25q7 64 63 113t148 49q110 0 162 -52.5t52 -134.5v-242q0 -44 6 -78h-122q-5 22 -5 59q-47 -73 -145 -73q-76 0 -122.5 44t-46.5 104zM238 85q47 0 77.5 26.5
t30.5 87.5v22l-111 -17q-61 -9 -61 -62q0 -24 17 -40.5t47 -16.5zM443 701l-136 -150h-107l91 150h152z" />
    <glyph glyph-name="acircumflex" unicode="&#xe2;" horiz-adv-x="539" 
d="M41 134q0 63 41 101t106 48l121 18q37 5 37 35q0 28 -21.5 46t-61.5 18q-42 0 -66.5 -23t-27.5 -57l-118 25q7 64 63 113t148 49q110 0 162 -52.5t52 -134.5v-242q0 -44 6 -78h-122q-5 22 -5 59q-47 -73 -145 -73q-76 0 -122.5 44t-46.5 104zM238 85q47 0 77.5 26.5
t30.5 87.5v22l-111 -17q-61 -9 -61 -62q0 -24 17 -40.5t47 -16.5zM193 552h-104l110 147h132l110 -147h-107l-71 75z" />
    <glyph glyph-name="atilde" unicode="&#xe3;" horiz-adv-x="539" 
d="M41 134q0 63 41 101t106 48l121 18q37 5 37 35q0 28 -21.5 46t-61.5 18q-42 0 -66.5 -23t-27.5 -57l-118 25q7 64 63 113t148 49q110 0 162 -52.5t52 -134.5v-242q0 -44 6 -78h-122q-5 22 -5 59q-47 -73 -145 -73q-76 0 -122.5 44t-46.5 104zM238 85q47 0 77.5 26.5
t30.5 87.5v22l-111 -17q-61 -9 -61 -62q0 -24 17 -40.5t47 -16.5zM443 696v-18q0 -60 -29.5 -91.5t-77.5 -31.5q-39 0 -71 22l-6 4q-29 18 -47 18q-34 0 -35 -43h-82v21q0 58 30.5 89.5t78.5 31.5q30 0 72 -22l6 -4q32 -19 48 -19q33 0 33 43h80z" />
    <glyph glyph-name="adieresis" unicode="&#xe4;" horiz-adv-x="539" 
d="M41 134q0 63 41 101t106 48l121 18q37 5 37 35q0 28 -21.5 46t-61.5 18q-42 0 -66.5 -23t-27.5 -57l-118 25q7 64 63 113t148 49q110 0 162 -52.5t52 -134.5v-242q0 -44 6 -78h-122q-5 22 -5 59q-47 -73 -145 -73q-76 0 -122.5 44t-46.5 104zM238 85q47 0 77.5 26.5
t30.5 87.5v22l-111 -17q-61 -9 -61 -62q0 -24 17 -40.5t47 -16.5zM91 628q0 29 20.5 50t49.5 21t50 -21t21 -50t-21 -49.5t-50 -20.5t-49.5 20.5t-20.5 49.5zM301 628q0 30 20 50.5t50 20.5q29 0 50 -21t21 -50t-21 -49.5t-50 -20.5q-30 0 -50 20.5t-20 49.5z" />
    <glyph glyph-name="aring" unicode="&#xe5;" horiz-adv-x="539" 
d="M41 134q0 63 41 101t106 48l121 18q37 5 37 35q0 28 -21.5 46t-61.5 18q-42 0 -66.5 -23t-27.5 -57l-118 25q7 64 63 113t148 49q110 0 162 -52.5t52 -134.5v-242q0 -44 6 -78h-122q-5 22 -5 59q-47 -73 -145 -73q-76 0 -122.5 44t-46.5 104zM238 85q47 0 77.5 26.5
t30.5 87.5v22l-111 -17q-61 -9 -61 -62q0 -24 17 -40.5t47 -16.5zM375 653q0 -47 -34 -78.5t-81 -31.5t-81 31.5t-34 78.5q0 48 34 80t81 32t81 -32t34 -80zM300 653q0 19 -12 30.5t-29 11.5t-28.5 -11.5t-11.5 -30.5q0 -18 11.5 -29.5t28.5 -11.5t29 11.5t12 29.5z" />
    <glyph glyph-name="ae" unicode="&#xe6;" horiz-adv-x="871" 
d="M715 176l112 -35q-20 -67 -80 -111.5t-146 -44.5q-120 0 -191 88q-66 -88 -187 -88q-84 0 -133 44t-49 105q0 63 41 101t106 48l126 18q37 5 37 35q0 28 -22.5 46.5t-63.5 18.5q-42 0 -68.5 -23.5t-29.5 -56.5l-116 24q6 64 64.5 113t150.5 49q114 0 167 -64
q69 64 162 64q112 0 175.5 -68t63.5 -187q0 -35 -3 -41h-353q2 -50 37.5 -81.5t86.5 -31.5q87 0 113 78zM242 85q45 0 77 27t32 86v23l-116 -17q-63 -9 -63 -62q0 -23 18.5 -40t51.5 -17zM481 302h222q-2 41 -29.5 69t-82.5 28q-49 0 -78 -29.5t-32 -67.5z" />
    <glyph glyph-name="ccedilla" unicode="&#xe7;" horiz-adv-x="550" 
d="M258 -108l-36 45l32 51q-96 13 -158 84.5t-62 173.5q0 113 73.5 187t181.5 74q94 0 154 -48.5t77 -117.5l-119 -40q-24 83 -109 83q-53 0 -89 -37t-36 -101t36.5 -101.5t89.5 -37.5q47 0 75 24.5t38 58.5l117 -39q-16 -59 -64.5 -105.5t-121.5 -57.5l-23 -36
q43 -1 70 -25t27 -61q0 -39 -31.5 -67t-96.5 -28q-39 0 -71 15.5t-48 36.5l43 54q37 -37 75 -37q41 0 41 28q0 12 -10.5 20t-27.5 8q-18 0 -27 -4z" />
    <glyph glyph-name="egrave" unicode="&#xe8;" horiz-adv-x="553" 
d="M168 302h220q-2 41 -29.5 69t-80.5 28q-48 0 -78 -30t-32 -67zM401 174l111 -33q-20 -68 -78.5 -112t-145.5 -44q-106 0 -180 71.5t-74 191.5q0 114 72 186.5t170 72.5q114 0 178.5 -68t64.5 -187q0 -8 -0.5 -18t-0.5 -16l-1 -7h-352q2 -48 38 -80t86 -32q85 0 112 75z
M240 551l-136 150h154l90 -150h-108z" />
    <glyph glyph-name="eacute" unicode="&#xe9;" horiz-adv-x="553" 
d="M458 701l-136 -150h-107l91 150h152zM168 302h220q-2 41 -29.5 69t-80.5 28q-48 0 -78 -30t-32 -67zM401 174l111 -33q-20 -68 -78.5 -112t-145.5 -44q-106 0 -180 71.5t-74 191.5q0 114 72 186.5t170 72.5q114 0 178.5 -68t64.5 -187q0 -8 -0.5 -18t-0.5 -16l-1 -7h-352
q2 -48 38 -80t86 -32q85 0 112 75z" />
    <glyph glyph-name="ecircumflex" unicode="&#xea;" horiz-adv-x="553" 
d="M210 552h-104l110 147h132l110 -147h-107l-71 75zM168 302h220q-2 41 -29.5 69t-80.5 28q-48 0 -78 -30t-32 -67zM401 174l111 -33q-20 -68 -78.5 -112t-145.5 -44q-106 0 -180 71.5t-74 191.5q0 114 72 186.5t170 72.5q114 0 178.5 -68t64.5 -187q0 -8 -0.5 -18
t-0.5 -16l-1 -7h-352q2 -48 38 -80t86 -32q85 0 112 75z" />
    <glyph glyph-name="edieresis" unicode="&#xeb;" horiz-adv-x="553" 
d="M107 628q0 29 20.5 50t49.5 21t50 -21t21 -50t-21 -49.5t-50 -20.5t-49.5 20.5t-20.5 49.5zM317 628q0 30 20 50.5t50 20.5q29 0 50 -21t21 -50t-21 -49.5t-50 -20.5q-30 0 -50 20.5t-20 49.5zM168 302h220q-2 41 -29.5 69t-80.5 28q-48 0 -78 -30t-32 -67zM401 174
l111 -33q-20 -68 -78.5 -112t-145.5 -44q-106 0 -180 71.5t-74 191.5q0 114 72 186.5t170 72.5q114 0 178.5 -68t64.5 -187q0 -8 -0.5 -18t-0.5 -16l-1 -7h-352q2 -48 38 -80t86 -32q85 0 112 75z" />
    <glyph glyph-name="igrave" unicode="&#xec;" horiz-adv-x="275" 
d="M204 0h-133v492h133v-492zM94 551l-136 150h154l90 -150h-108z" />
    <glyph glyph-name="iacute" unicode="&#xed;" horiz-adv-x="275" 
d="M321 701l-136 -150h-107l91 150h152zM204 0h-133v492h133v-492z" />
    <glyph glyph-name="icircumflex" unicode="&#xee;" horiz-adv-x="275" 
d="M66 552h-104l110 147h132l110 -147h-107l-71 75zM204 0h-133v492h133v-492z" />
    <glyph glyph-name="idieresis" unicode="&#xef;" horiz-adv-x="275" 
d="M-21 628q0 29 19.5 49t48.5 20t49 -20t20 -49q0 -28 -20 -48t-49 -20t-48.5 20t-19.5 48zM158 628q0 29 19.5 49t48.5 20t49 -20t20 -49t-20 -48.5t-49 -19.5q-28 0 -48 20t-20 48zM204 0h-133v492h133v-492z" />
    <glyph glyph-name="eth" unicode="&#xf0;" horiz-adv-x="581" 
d="M512 622l-77 -32q113 -126 113 -313q0 -125 -67.5 -208.5t-190.5 -83.5q-110 0 -183 69.5t-73 174.5q0 108 72.5 170.5t168.5 62.5q81 0 117 -38q-21 66 -74 117l-137 -58l-32 80l87 37q-51 28 -111 46l41 100q114 -29 198 -91l114 48zM290 105q52 0 88.5 33.5t36.5 92.5
t-36.5 92.5t-88.5 33.5q-51 0 -87.5 -34t-36.5 -92t36.5 -92t87.5 -34z" />
    <glyph glyph-name="ntilde" unicode="&#xf1;" horiz-adv-x="584" 
d="M204 283v-283h-133v492h129v-61q21 36 60 55t82 19q87 0 132.5 -54.5t45.5 -140.5v-310h-133v287q0 44 -22.5 71t-68.5 27q-42 0 -67 -29t-25 -73zM474 696v-18q0 -60 -29.5 -91.5t-77.5 -31.5q-39 0 -71 22l-6 4q-29 18 -47 18q-34 0 -35 -43h-82v21q0 58 30.5 89.5
t78.5 31.5q30 0 72 -22l6 -4q32 -19 48 -19q33 0 33 43h80z" />
    <glyph glyph-name="ograve" unicode="&#xf2;" horiz-adv-x="584" 
d="M292 106q52 0 88.5 37t36.5 103t-36.5 103t-88.5 37t-88.5 -37t-36.5 -103t36.5 -103t88.5 -37zM292 507q111 0 184.5 -74t73.5 -187t-73.5 -187t-184.5 -74t-184.5 74t-73.5 187t73.5 187t184.5 74zM245 551l-136 150h154l90 -150h-108z" />
    <glyph glyph-name="oacute" unicode="&#xf3;" horiz-adv-x="584" 
d="M467 701l-136 -150h-107l91 150h152zM292 106q52 0 88.5 37t36.5 103t-36.5 103t-88.5 37t-88.5 -37t-36.5 -103t36.5 -103t88.5 -37zM292 507q111 0 184.5 -74t73.5 -187t-73.5 -187t-184.5 -74t-184.5 74t-73.5 187t73.5 187t184.5 74z" />
    <glyph glyph-name="ocircumflex" unicode="&#xf4;" horiz-adv-x="584" 
d="M222 552h-104l110 147h132l110 -147h-107l-71 75zM292 106q52 0 88.5 37t36.5 103t-36.5 103t-88.5 37t-88.5 -37t-36.5 -103t36.5 -103t88.5 -37zM292 507q111 0 184.5 -74t73.5 -187t-73.5 -187t-184.5 -74t-184.5 74t-73.5 187t73.5 187t184.5 74z" />
    <glyph glyph-name="otilde" unicode="&#xf5;" horiz-adv-x="584" 
d="M292 106q52 0 88.5 37t36.5 103t-36.5 103t-88.5 37t-88.5 -37t-36.5 -103t36.5 -103t88.5 -37zM292 507q111 0 184.5 -74t73.5 -187t-73.5 -187t-184.5 -74t-184.5 74t-73.5 187t73.5 187t184.5 74zM467 696v-18q0 -60 -29.5 -91.5t-77.5 -31.5q-39 0 -71 22l-6 4
q-29 18 -47 18q-34 0 -35 -43h-82v21q0 58 30.5 89.5t78.5 31.5q30 0 72 -22l6 -4q32 -19 48 -19q33 0 33 43h80z" />
    <glyph glyph-name="odieresis" unicode="&#xf6;" horiz-adv-x="584" 
d="M116 628q0 29 20.5 50t49.5 21t50 -21t21 -50t-21 -49.5t-50 -20.5t-49.5 20.5t-20.5 49.5zM326 628q0 30 20 50.5t50 20.5q29 0 50 -21t21 -50t-21 -49.5t-50 -20.5q-30 0 -50 20.5t-20 49.5zM292 106q52 0 88.5 37t36.5 103t-36.5 103t-88.5 37t-88.5 -37t-36.5 -103
t36.5 -103t88.5 -37zM292 507q111 0 184.5 -74t73.5 -187t-73.5 -187t-184.5 -74t-184.5 74t-73.5 187t73.5 187t184.5 74z" />
    <glyph glyph-name="divide" unicode="&#xf7;" horiz-adv-x="587" 
d="M213 112q0 32 23 54.5t55 22.5t55 -22.5t23 -54.5t-23 -55t-55 -23t-55 23t-23 55zM213 478q0 32 23 54.5t55 22.5t55 -22.5t23 -54.5t-23 -55t-55 -23t-55 23t-23 55zM49 239v111h489v-111h-489z" />
    <glyph glyph-name="oslash" unicode="&#xf8;" horiz-adv-x="584" 
d="M292 507q73 0 132 -34l53 65l64 -54l-52 -65q61 -72 61 -173q0 -113 -73.5 -187t-184.5 -74q-68 0 -128 31l-50 -62l-66 54l50 61q-64 74 -64 177q0 113 73.5 187t184.5 74zM167 246q0 -42 15 -72l163 201q-27 11 -53 11q-52 0 -88.5 -37t-36.5 -103zM292 106
q52 0 88.5 37t36.5 103q0 37 -13 68l-160 -199q22 -9 48 -9z" />
    <glyph glyph-name="ugrave" unicode="&#xf9;" horiz-adv-x="586" 
d="M393 0q-4 20 -4 53q-19 -33 -56.5 -49.5t-79.5 -16.5q-87 0 -137 55.5t-50 138.5v311h133v-284q0 -44 23 -71.5t67 -27.5q43 0 68 26.5t25 70.5v286h133v-403q0 -47 5 -89h-127zM258 551l-136 150h154l90 -150h-108z" />
    <glyph glyph-name="uacute" unicode="&#xfa;" horiz-adv-x="586" 
d="M450 701l-136 -150h-107l91 150h152zM393 0q-4 20 -4 53q-19 -33 -56.5 -49.5t-79.5 -16.5q-87 0 -137 55.5t-50 138.5v311h133v-284q0 -44 23 -71.5t67 -27.5q43 0 68 26.5t25 70.5v286h133v-403q0 -47 5 -89h-127z" />
    <glyph glyph-name="ucircumflex" unicode="&#xfb;" horiz-adv-x="586" 
d="M220 552h-104l110 147h132l110 -147h-107l-71 75zM393 0q-4 20 -4 53q-19 -33 -56.5 -49.5t-79.5 -16.5q-87 0 -137 55.5t-50 138.5v311h133v-284q0 -44 23 -71.5t67 -27.5q43 0 68 26.5t25 70.5v286h133v-403q0 -47 5 -89h-127z" />
    <glyph glyph-name="udieresis" unicode="&#xfc;" horiz-adv-x="586" 
d="M118 628q0 29 20.5 50t49.5 21t50 -21t21 -50t-21 -49.5t-50 -20.5t-49.5 20.5t-20.5 49.5zM328 628q0 30 20 50.5t50 20.5q29 0 50 -21t21 -50t-21 -49.5t-50 -20.5q-30 0 -50 20.5t-20 49.5zM393 0q-4 20 -4 53q-19 -33 -56.5 -49.5t-79.5 -16.5q-87 0 -137 55.5
t-50 138.5v311h133v-284q0 -44 23 -71.5t67 -27.5q43 0 68 26.5t25 70.5v286h133v-403q0 -47 5 -89h-127z" />
    <glyph glyph-name="yacute" unicode="&#xfd;" horiz-adv-x="560" 
d="M241 -194h-141l116 256l-209 430h149l131 -288l121 288h142zM449 701l-136 -150h-107l91 150h152z" />
    <glyph glyph-name="thorn" unicode="&#xfe;" horiz-adv-x="612" 
d="M204 -190h-133v914h133v-286q19 28 58 46.5t89 18.5q105 0 166 -71.5t61 -184.5t-64.5 -186t-167.5 -73q-98 0 -142 60v-238zM447 246q0 64 -34.5 101t-87.5 37t-88 -37.5t-35 -100.5t35 -101t88 -38t87.5 37.5t34.5 101.5z" />
    <glyph glyph-name="ydieresis" unicode="&#xff;" horiz-adv-x="560" 
d="M241 -194h-141l116 256l-209 430h149l131 -288l121 288h142zM107 628q0 29 20.5 50t49.5 21t50 -21t21 -50t-21 -49.5t-50 -20.5t-49.5 20.5t-20.5 49.5zM317 628q0 30 20 50.5t50 20.5q29 0 50 -21t21 -50t-21 -49.5t-50 -20.5q-30 0 -50 20.5t-20 49.5z" />
    <glyph glyph-name="dotlessi" unicode="&#x131;" horiz-adv-x="275" 
d="M204 0h-133v492h133v-492z" />
    <glyph glyph-name="Lslash" unicode="&#x141;" horiz-adv-x="582" 
d="M557 0h-454v259l-92 -42v111l92 42v339h138v-276l161 73v-111l-161 -73v-190h316v-132z" />
    <glyph glyph-name="lslash" unicode="&#x142;" horiz-adv-x="327" 
d="M229 0h-133v258l-85 -39v111l85 39v355h133v-295l87 40v-111l-87 -40v-318z" />
    <glyph glyph-name="OE" unicode="&#x152;" horiz-adv-x="1126" 
d="M182 355q0 -113 66 -174.5t155 -61.5q90 0 156 61.5t66 174.5t-66 174.5t-156 61.5q-89 0 -155 -61.5t-66 -174.5zM1069 0h-444v71q-83 -86 -222 -86q-150 0 -257 102t-107 267q0 166 107 268t257 102q138 0 222 -87v72h444v-130h-306v-162h277v-123h-277v-164h306v-130z
" />
    <glyph glyph-name="oe" unicode="&#x153;" horiz-adv-x="937" 
d="M552 302h220q-2 41 -29.5 69t-80.5 28q-48 0 -78 -30t-32 -67zM292 106q52 0 88.5 37t36.5 103t-36.5 103t-88.5 37t-88.5 -37t-36.5 -103t36.5 -103t88.5 -37zM292 507q116 0 190 -80q72 80 178 80q114 0 178.5 -68t64.5 -187q0 -8 -0.5 -18t-0.5 -16l-1 -7h-352
q2 -48 38 -80t86 -32q85 0 112 75l111 -33q-20 -68 -78.5 -112t-145.5 -44q-117 0 -189 81q-75 -81 -191 -81q-111 0 -184.5 74t-73.5 187t73.5 187t184.5 74z" />
    <glyph glyph-name="Scaron" unicode="&#x160;" horiz-adv-x="604" 
d="M121 886h124l66 -64l67 64h121l-122 -127h-136zM558 540l-124 -38q-7 38 -38 69t-91 31q-49 0 -80 -26.5t-31 -63.5q0 -65 77 -80l99 -19q94 -18 146 -75t52 -134q0 -88 -69.5 -153.5t-186.5 -65.5q-67 0 -121 20t-87 53.5t-51.5 71t-22.5 77.5l128 34q5 -57 44.5 -95
t110.5 -38q54 0 84.5 24t30.5 63q0 31 -22.5 53.5t-63.5 30.5l-99 20q-86 18 -136 71t-50 132q0 94 72.5 158t174.5 64q61 0 109 -17t77 -45.5t45 -58.5t23 -63z" />
    <glyph glyph-name="scaron" unicode="&#x161;" horiz-adv-x="461" 
d="M55 700h107l70 -75l70 75h105l-109 -148h-133zM29 137l114 25q2 -32 25.5 -53.5t64.5 -21.5q31 0 48 14t17 35q0 37 -53 48l-65 15q-69 15 -103.5 54t-34.5 93q0 67 52.5 114t131.5 47q50 0 88 -14.5t59 -37t32 -45.5t14 -45l-111 -25q-4 26 -23.5 46t-57.5 20
q-26 0 -44.5 -14t-18.5 -35q0 -36 45 -44l70 -15q71 -15 108.5 -55t37.5 -96q0 -66 -50 -114t-141 -48q-52 0 -93 15.5t-63.5 40t-34 49t-14.5 47.5z" />
    <glyph glyph-name="Ydieresis" unicode="&#x178;" horiz-adv-x="655" 
d="M139 823q0 30 20.5 51t51.5 21t52 -21t21 -51q0 -31 -21 -51.5t-52 -20.5t-51.5 20.5t-20.5 51.5zM376 823q0 30 20.5 51t51.5 21q30 0 51 -21t21 -51q0 -31 -21 -51.5t-51 -20.5q-31 0 -51.5 20.5t-20.5 51.5zM257 298l-247 411h162l159 -281l159 281h155l-250 -411
v-298h-138v298z" />
    <glyph glyph-name="Zcaron" unicode="&#x17d;" horiz-adv-x="640" 
d="M137 886h124l66 -64l67 64h121l-122 -127h-136zM597 0h-558v134l369 444h-356v131h540v-129l-375 -448h380v-132z" />
    <glyph glyph-name="zcaron" unicode="&#x17e;" horiz-adv-x="481" 
d="M68 700h107l70 -75l70 75h105l-109 -148h-133zM444 0h-407v117l233 260h-227v115h397v-111l-240 -265h244v-116z" />
    <glyph glyph-name="florin" unicode="&#x192;" horiz-adv-x="513" 
d="M119 27l71 352h-98v112h121l19 92q15 78 68 117.5t119 39.5q49 0 89 -13v-115q-31 7 -62 7q-69 0 -84 -75l-11 -53h117v-112h-140l-79 -392q-16 -78 -68.5 -117.5t-118.5 -39.5q-50 0 -92 14v114q32 -7 65 -7q69 0 84 76z" />
    <glyph glyph-name="circumflex" unicode="&#x2c6;" horiz-adv-x="404" 
d="M130 552h-104l110 147h132l110 -147h-107l-71 75z" />
    <glyph glyph-name="caron" unicode="&#x2c7;" horiz-adv-x="404" 
d="M26 700h107l70 -75l70 75h105l-109 -148h-133z" />
    <glyph glyph-name="uni02C9" unicode="&#x2c9;" horiz-adv-x="335" 
d="M308 577h-281v97h281v-97z" />
    <glyph glyph-name="breve" unicode="&#x2d8;" horiz-adv-x="374" 
d="M187 549q-75 0 -117 44t-44 107h89q2 -24 20 -41.5t52 -17.5t52 17.5t20 41.5h89q-2 -63 -44 -107t-117 -44z" />
    <glyph glyph-name="dotaccent" unicode="&#x2d9;" horiz-adv-x="192" 
d="M16 627q0 33 23.5 56t56.5 23t56.5 -23t23.5 -56t-23.5 -55.5t-56.5 -22.5t-56.5 22.5t-23.5 55.5z" />
    <glyph glyph-name="ring" unicode="&#x2da;" horiz-adv-x="282" 
d="M256 648q0 -47 -34 -78.5t-81 -31.5t-81 31.5t-34 78.5q0 48 34 80t81 32t81 -32t34 -80zM181 648q0 18 -11.5 30t-29.5 12q-17 0 -28.5 -11.5t-11.5 -30.5q0 -18 11.5 -29.5t28.5 -11.5t29 11.5t12 29.5z" />
    <glyph glyph-name="ogonek" unicode="&#x2db;" horiz-adv-x="224" 
d="M146 -223q-54 0 -88.5 29.5t-34.5 77.5q0 86 103 132l72 -16q-33 -16 -56 -40t-23 -54q0 -45 51 -45q16 0 28 3v-79q-21 -8 -52 -8z" />
    <glyph glyph-name="tilde" unicode="&#x2dc;" horiz-adv-x="391" 
d="M369 696v-18q0 -60 -29.5 -91.5t-77.5 -31.5q-39 0 -71 22l-6 4q-29 18 -47 18q-34 0 -35 -43h-82v21q0 58 30.5 89.5t78.5 31.5q30 0 72 -22l6 -4q32 -19 48 -19q33 0 33 43h80z" />
    <glyph glyph-name="hungarumlaut" unicode="&#x2dd;" horiz-adv-x="396" 
d="M205 701l-97 -150h-84l52 150h129zM372 701l-112 -150h-85l66 150h131z" />
    <glyph glyph-name="uni0394" unicode="&#x394;" horiz-adv-x="691" 
d="M0 0l270 709h150l271 -709h-691zM345 559l-154 -431h309z" />
    <glyph glyph-name="uni03A9" unicode="&#x3a9;" horiz-adv-x="782" 
d="M391 595q-82 0 -142.5 -54t-60.5 -147q0 -80 48.5 -134.5t117.5 -69.5v-190h-302v126h179q-79 31 -132.5 104.5t-53.5 172.5q0 144 101.5 233t244.5 89t244.5 -89t101.5 -233q0 -99 -54 -172t-133 -105h179v-126h-302v190q69 15 118 69.5t49 134.5q0 93 -60.5 147
t-142.5 54z" />
    <glyph glyph-name="uni03BC" unicode="&#x3bc;" horiz-adv-x="594" 
d="M399 0q-4 20 -4 53q-19 -33 -56.5 -49.5t-79.5 -16.5q-32 0 -54 7v-184h-133v682h133v-284q0 -44 23 -71.5t67 -27.5q43 0 68 26.5t25 70.5v286h133v-403q0 -57 5 -89h-127z" />
    <glyph glyph-name="pi" unicode="&#x3c0;" horiz-adv-x="638" 
d="M597 5q-26 -13 -70 -13q-70 0 -106 39t-36 104v243h-133v-378h-133v378h-83v114h559v-114h-78v-225q0 -47 49 -47q1 0 31 3v-104z" />
    <glyph glyph-name="uni2007" unicode="&#x2007;" horiz-adv-x="624" 
 />
    <glyph glyph-name="uni2008" unicode="&#x2008;" horiz-adv-x="311" 
 />
    <glyph glyph-name="uni200B" unicode="&#x200b;" horiz-adv-x="0" 
 />
    <glyph glyph-name="endash" unicode="&#x2013;" horiz-adv-x="640" 
d="M578 239h-516v115h516v-115z" />
    <glyph glyph-name="emdash" unicode="&#x2014;" horiz-adv-x="1084" 
d="M1012 239h-940v115h940v-115z" />
    <glyph glyph-name="quoteleft" unicode="&#x2018;" horiz-adv-x="233" 
d="M199 508q0 -30 -22 -51.5t-56 -21.5q-39 0 -63 27.5t-24 68.5q0 90 48 134.5t107 50.5v-61q-31 -5 -56 -27.5t-26 -55.5q8 5 21 5q33 0 52 -18.5t19 -50.5z" />
    <glyph glyph-name="quoteright" unicode="&#x2019;" horiz-adv-x="235" 
d="M34 643q0 30 22.5 51.5t57.5 21.5q39 0 63 -28t24 -69q0 -48 -15 -85t-39 -58t-49.5 -32.5t-51.5 -13.5v61q31 5 56 28.5t26 56.5q-8 -5 -21 -5q-33 0 -53 20t-20 52z" />
    <glyph glyph-name="quotesinglbase" unicode="&#x201a;" horiz-adv-x="235" 
d="M34 69q0 30 22.5 51t57.5 21q39 0 63 -28t24 -69q0 -48 -15 -85t-39 -58t-49.5 -32.5t-51.5 -13.5v62q31 4 56 27.5t26 56.5q-8 -5 -21 -5q-33 0 -53 20t-20 53z" />
    <glyph glyph-name="quotedblleft" unicode="&#x201c;" horiz-adv-x="430" 
d="M199 508q0 -30 -22 -51.5t-56 -21.5q-39 0 -63 27.5t-24 68.5q0 90 48 134.5t107 50.5v-61q-31 -5 -56 -27.5t-26 -55.5q8 5 21 5q33 0 52 -18.5t19 -50.5zM396 508q0 -30 -22 -51.5t-56 -21.5q-39 0 -63 27.5t-24 68.5q0 90 48 134.5t107 50.5v-61q-31 -5 -56 -27.5
t-26 -55.5q8 5 21 5q33 0 52 -18.5t19 -50.5z" />
    <glyph glyph-name="quotedblright" unicode="&#x201d;" horiz-adv-x="429" 
d="M34 643q0 30 22.5 51.5t57.5 21.5q39 0 63 -28t24 -69q0 -48 -15 -85t-39 -58t-49.5 -32.5t-51.5 -13.5v61q31 5 56 28.5t26 56.5q-8 -5 -21 -5q-33 0 -53 20t-20 52zM230 643q0 30 22.5 51.5t57.5 21.5q39 0 63 -28t24 -69q0 -48 -15 -85t-39 -58t-49.5 -32.5
t-51.5 -13.5v61q31 5 56 28.5t26 56.5q-8 -5 -21 -5q-33 0 -53 20t-20 52z" />
    <glyph glyph-name="quotedblbase" unicode="&#x201e;" horiz-adv-x="429" 
d="M34 70q0 30 22.5 51t57.5 21q39 0 63 -28t24 -69q0 -48 -15 -85t-39 -58t-49.5 -32.5t-51.5 -13.5v62q31 4 56 27.5t26 56.5q-8 -5 -22 -5q-33 0 -52.5 20t-19.5 53zM228 70q0 30 22.5 51t57.5 21q39 0 63 -28t24 -69q0 -48 -15 -85t-39 -58t-49.5 -32.5t-51.5 -13.5v62
q31 4 56 27.5t26 56.5q-8 -5 -22 -5q-33 0 -52.5 20t-19.5 53z" />
    <glyph glyph-name="dagger" unicode="&#x2020;" horiz-adv-x="413" 
d="M262 163h-111v300h-123v104h123v142h111v-142h123v-104h-123v-300z" />
    <glyph glyph-name="daggerdbl" unicode="&#x2021;" horiz-adv-x="453" 
d="M48 247h123v215h-123v103h123v144h111v-144h123v-103h-123v-215h123v-103h-123v-144h-111v144h-123v103z" />
    <glyph glyph-name="bullet" unicode="&#x2022;" horiz-adv-x="532" 
d="M58 299q0 86 61 147.5t147 61.5t147 -61.5t61 -147.5t-61 -147.5t-147 -61.5q-85 0 -146.5 61.5t-61.5 147.5z" />
    <glyph glyph-name="ellipsis" unicode="&#x2026;" horiz-adv-x="921" 
d="M846 70q0 -33 -23.5 -56.5t-57.5 -23.5q-33 0 -56.5 23.5t-23.5 56.5q0 34 23.5 57.5t56.5 23.5q34 0 57.5 -23.5t23.5 -57.5zM541 70q0 -33 -23.5 -56.5t-57.5 -23.5q-33 0 -57 23.5t-24 56.5q0 34 24 57.5t57 23.5q34 0 57.5 -23.5t23.5 -57.5zM236 70q0 -33 -23 -56.5
t-57 -23.5t-57.5 23.5t-23.5 56.5q0 34 23.5 57.5t57.5 23.5t57 -23.5t23 -57.5z" />
    <glyph glyph-name="perthousand" unicode="&#x2030;" horiz-adv-x="1084" 
d="M144 496q0 -31 19 -50.5t47 -19.5q29 0 47.5 19.5t18.5 50.5q0 30 -18.5 49.5t-47.5 19.5q-28 0 -47 -19.5t-19 -49.5zM44 496q0 68 49 115.5t117 47.5t117.5 -47.5t49.5 -115.5q0 -69 -49 -116t-118 -47t-117.5 47t-48.5 116zM580 153q0 -31 19 -50.5t48 -19.5t48 19.5
t19 50.5q0 30 -19 49.5t-48 19.5t-48 -19.5t-19 -49.5zM258 0h-116l458 649h116zM809 153q0 -31 19.5 -50.5t47.5 -19.5q29 0 48 19.5t19 50.5q0 30 -19 49.5t-48 19.5q-28 0 -47.5 -19.5t-19.5 -49.5zM480 153q0 68 49.5 116t117.5 48q72 0 115 -53q43 53 114 53
q68 0 118 -48t50 -116q0 -69 -49.5 -116t-118.5 -47q-72 0 -114 52q-43 -52 -116 -52q-68 0 -117 47.5t-49 115.5z" />
    <glyph glyph-name="guilsinglleft" unicode="&#x2039;" horiz-adv-x="307" 
d="M290 101h-126l-137 194l138 197h125l-136 -198z" />
    <glyph glyph-name="guilsinglright" unicode="&#x203a;" horiz-adv-x="307" 
d="M144 101h-126l135 193l-136 198h126l137 -197z" />
    <glyph glyph-name="uni2042" unicode="&#x2042;" horiz-adv-x="837" 
d="M463 708v-111l101 34l29 -85l-103 -33l65 -87l-72 -53l-67 88l-64 -88l-72 54l63 86l-102 33l28 85l101 -34v111h93zM256 322v-111l101 34l29 -85l-103 -33l65 -87l-72 -53l-67 88l-64 -88l-72 54l63 86l-102 33l28 85l101 -34v111h93zM674 322v-111l101 34l29 -85
l-103 -33l65 -87l-72 -53l-67 88l-64 -88l-72 54l63 86l-102 33l28 85l101 -34v111h93z" />
    <glyph glyph-name="fraction" unicode="&#x2044;" horiz-adv-x="574" 
d="M116 0h-116l458 649h116z" />
    <glyph glyph-name="uni2051" unicode="&#x2051;" horiz-adv-x="428" 
d="M260 708v-111l101 34l29 -85l-103 -33l65 -87l-72 -53l-67 88l-64 -88l-72 54l63 86l-102 33l28 85l101 -34v111h93zM260 325v-111l101 34l29 -85l-103 -33l65 -87l-72 -53l-67 88l-64 -88l-72 54l63 86l-102 33l28 85l101 -34v111h93z" />
    <glyph glyph-name="uni2070" unicode="&#x2070;" horiz-adv-x="434" 
d="M155 525q0 -107 62 -107q63 0 63 107q0 108 -63 108q-62 0 -62 -108zM51 525q0 83 36 131q45 61 130 61q86 0 131 -61q35 -48 35 -131q0 -82 -35 -130q-44 -61 -131 -61q-86 0 -130 61q-36 48 -36 130z" />
    <glyph glyph-name="uni2074" unicode="&#x2074;" horiz-adv-x="441" 
d="M51 412v99l169 198h109v-218h61v-79h-61v-71h-100v71h-178zM229 491v114l-97 -114h97z" />
    <glyph glyph-name="uni2075" unicode="&#x2075;" horiz-adv-x="405" 
d="M51 445l89 23q3 -23 20 -36.5t41 -13.5t38.5 13t14.5 35q0 51 -56 51q-32 0 -52 -22l-83 25l46 189h222v-83h-162l-15 -63q26 23 71 23q59 0 94 -32t35 -87q0 -56 -41 -94t-112 -38q-59 0 -101 32t-49 78z" />
    <glyph glyph-name="uni2076" unicode="&#x2076;" horiz-adv-x="419" 
d="M353 699l-18 -77q-33 12 -65 12q-42 0 -74 -20.5t-43 -61.5q30 32 85 32q57 0 93.5 -31t36.5 -88q0 -58 -44.5 -95.5t-112.5 -37.5t-114 45.5t-46 123.5q0 98 60.5 156t152.5 58q50 0 89 -16zM157 462q0 -21 16 -35t38 -14t38 14t16 35q0 23 -15.5 36.5t-38.5 13.5
q-22 0 -38 -14t-16 -36z" />
    <glyph glyph-name="uni2077" unicode="&#x2077;" horiz-adv-x="409" 
d="M358 709v-85q-125 -99 -142 -283h-107q4 51 18.5 99t32.5 80.5t35.5 57t29.5 36.5l12 11h-186v84h307z" />
    <glyph glyph-name="uni2078" unicode="&#x2078;" horiz-adv-x="420" 
d="M210 562q21 0 33 11t12 28q0 14 -12 25t-33 11q-22 0 -34 -11t-12 -25q0 -17 12 -28t34 -11zM210 412q27 0 41 12.5t14 30.5q0 16 -14.5 28t-40.5 12q-27 0 -41 -12t-14 -28q0 -18 14 -30.5t41 -12.5zM210 333q-73 0 -114.5 30t-41.5 80q0 30 20 53.5t53 33.5
q-29 9 -45.5 32t-16.5 50q0 46 39 75t106 29t105.5 -29.5t38.5 -74.5q0 -27 -16.5 -50t-45.5 -32q32 -9 53 -32.5t21 -52.5q0 -51 -41 -81.5t-115 -30.5z" />
    <glyph glyph-name="uni2079" unicode="&#x2079;" horiz-adv-x="418" 
d="M70 349l17 78q36 -12 63 -12q102 0 119 83q-30 -33 -86 -33q-55 0 -93.5 32t-38.5 87q0 59 43 96t114 37q68 0 113 -45.5t45 -124.5q0 -101 -57.5 -157.5t-147.5 -56.5q-50 0 -91 16zM259 587q0 21 -16 35t-38 14q-23 0 -38.5 -14t-15.5 -35q0 -23 15.5 -37t38.5 -14
q22 0 38 14t16 37z" />
    <glyph glyph-name="uni2080" unicode="&#x2080;" horiz-adv-x="434" 
d="M155 110q0 -107 62 -107q63 0 63 107q0 108 -63 108q-62 0 -62 -108zM51 110q0 83 36 131q45 61 130 61q86 0 131 -61q35 -48 35 -131q0 -82 -35 -130q-44 -61 -131 -61q-86 0 -130 61q-36 48 -36 130z" />
    <glyph glyph-name="uni2081" unicode="&#x2081;" horiz-adv-x="307" 
d="M232 -104h-103v223h-91v66q44 0 70.5 23.5t32.5 54.5h91v-367z" />
    <glyph glyph-name="uni2082" unicode="&#x2082;" horiz-adv-x="394" 
d="M149 120l-91 -1q-4 14 -4 29q0 54 38 89t106 35q65 0 103.5 -35t38.5 -87q0 -65 -79 -112l-70 -42q-12 -7 -12 -15h164v-85h-291v12q0 104 89 157l60 35q38 23 38 51q0 15 -11 27t-31 12q-23 0 -37 -14t-14 -38q0 -9 3 -18z" />
    <glyph glyph-name="uni2083" unicode="&#x2083;" horiz-adv-x="411" 
d="M51 4l91 21q2 -23 19 -38t42 -15q24 0 39 12.5t15 31.5q0 22 -15.5 33.5t-37.5 11.5q-18 0 -32 -6l-33 68l87 59h-161v83h284v-82l-90 -61q46 -6 73.5 -34t27.5 -74q0 -52 -43 -88.5t-114 -36.5q-64 0 -105 34t-47 81z" />
    <glyph glyph-name="uni2084" unicode="&#x2084;" horiz-adv-x="441" 
d="M51 -33v99l169 198h109v-218h61v-79h-61v-71h-100v71h-178zM229 46v114l-97 -114h97z" />
    <glyph glyph-name="uni2085" unicode="&#x2085;" horiz-adv-x="405" 
d="M51 0l89 23q3 -23 20 -36.5t41 -13.5t38.5 13t14.5 35q0 51 -56 51q-32 0 -52 -22l-83 25l46 189h222v-83h-162l-15 -63q26 23 71 23q59 0 94 -32t35 -87q0 -56 -41 -94t-112 -38q-59 0 -101 32t-49 78z" />
    <glyph glyph-name="uni2086" unicode="&#x2086;" horiz-adv-x="419" 
d="M353 255l-18 -77q-33 12 -65 12q-42 0 -74 -20.5t-43 -61.5q30 32 85 32q57 0 93.5 -31t36.5 -88q0 -58 -44.5 -95.5t-112.5 -37.5t-114 45.5t-46 123.5q0 98 60.5 156t152.5 58q50 0 89 -16zM157 18q0 -21 16 -35t38 -14t38 14t16 35q0 23 -15.5 36.5t-38.5 13.5
q-22 0 -38 -14t-16 -36z" />
    <glyph glyph-name="uni2087" unicode="&#x2087;" horiz-adv-x="409" 
d="M358 263v-85q-125 -99 -142 -283h-107q4 51 18.5 99t32.5 80.5t35.5 57t29.5 36.5l12 11h-186v84h307z" />
    <glyph glyph-name="uni2088" unicode="&#x2088;" horiz-adv-x="420" 
d="M210 117q21 0 33 11t12 28q0 14 -12 25t-33 11q-22 0 -34 -11t-12 -25q0 -17 12 -28t34 -11zM210 -33q27 0 41 12.5t14 30.5q0 16 -14.5 28t-40.5 12q-27 0 -41 -12t-14 -28q0 -18 14 -30.5t41 -12.5zM210 -112q-73 0 -114.5 30t-41.5 80q0 30 20 53.5t53 33.5
q-29 9 -45.5 32t-16.5 50q0 46 39 75t106 29t105.5 -29.5t38.5 -74.5q0 -27 -16.5 -50t-45.5 -32q32 -9 53 -32.5t21 -52.5q0 -51 -41 -81.5t-115 -30.5z" />
    <glyph glyph-name="uni2089" unicode="&#x2089;" horiz-adv-x="418" 
d="M70 -95l17 78q36 -12 63 -12q102 0 119 83q-30 -33 -86 -33q-55 0 -93.5 32t-38.5 87q0 59 43 96t114 37q68 0 113 -45.5t45 -124.5q0 -101 -57.5 -157.5t-147.5 -56.5q-50 0 -91 16zM259 143q0 21 -16 35t-38 14q-23 0 -38.5 -14t-15.5 -35q0 -23 15.5 -37t38.5 -14
q22 0 38 14t16 37z" />
    <glyph glyph-name="Euro" unicode="&#x20ac;" horiz-adv-x="679" 
d="M601 149l62 -99q-82 -66 -194 -66q-108 0 -193.5 56t-120.5 156h-93v94h73q-1 18 -1 32q0 16 1 32h-73v94h93q35 100 121.5 158t192.5 58q101 0 172 -46l-51 -105q-46 31 -121 31q-53 0 -98 -24t-71 -72h260l-44 -94h-242q-2 -14 -2 -33q0 -13 2 -31h216l-43 -94h-144
q52 -90 166 -90q81 0 132 43z" />
    <glyph glyph-name="uni2113" unicode="&#x2113;" horiz-adv-x="429" 
d="M29 271q34 8 69 23v202q0 77 42.5 122t109.5 45q69 0 109.5 -42t40.5 -117t-48 -149.5t-132 -128.5v-37q0 -40 20.5 -59t47.5 -19q55 0 91 25v-111q-3 -4 -13 -10t-35 -13t-57 -7q-85 0 -130.5 48t-45.5 123v5q-36 -12 -69 -17v117zM279 509q0 41 -29 41q-30 0 -30 -48
v-130q59 61 59 137z" />
    <glyph glyph-name="trademark" unicode="&#x2122;" horiz-adv-x="876" 
d="M334 625h-103v-281h-94v281h-104v84h301v-84zM816 344h-91v222l-89 -222h-68l-90 219v-219h-91v365h128l89 -214l86 214h126v-365z" />
    <glyph glyph-name="Omega" unicode="&#x2126;" horiz-adv-x="782" 
d="M391 595q-82 0 -142.5 -54t-60.5 -147q0 -80 48.5 -134.5t117.5 -69.5v-190h-302v126h179q-79 31 -132.5 104.5t-53.5 172.5q0 144 101.5 233t244.5 89t244.5 -89t101.5 -233q0 -99 -54 -172t-133 -105h179v-126h-302v190q69 15 118 69.5t49 134.5q0 93 -60.5 147
t-142.5 54z" />
    <glyph glyph-name="uni2160" unicode="&#x2160;" horiz-adv-x="498" 
d="M452 649v-117h-134v-415h134v-117h-406v117h135v415h-135v117h406z" />
    <glyph glyph-name="uni2161" unicode="&#x2161;" horiz-adv-x="786" 
d="M740 117v-117h-694v117h137v415h-137v117h694v-117h-136v-415h136zM467 117v415h-147v-415h147z" />
    <glyph glyph-name="uni2162" unicode="&#x2162;" horiz-adv-x="1060" 
d="M1014 117v-117h-968v117h137v415h-137v117h968v-117h-136v-415h136zM741 117v415h-142v-415h142zM320 532v-415h142v415h-142z" />
    <glyph glyph-name="uni2163" unicode="&#x2163;" horiz-adv-x="1053" 
d="M1007 117v-117h-961v117h132v415h-132v117h961v-117h-108l-134 -415h242zM315 532v-415h213l-136 415h-77zM648 166l112 366h-224z" />
    <glyph glyph-name="uni2164" unicode="&#x2164;" horiz-adv-x="808" 
d="M762 649v-117h-106l-134 -415h238v-117h-712v117h237l-136 415h-103v117h716zM405 166l112 366h-224z" />
    <glyph glyph-name="uni2165" unicode="&#x2165;" horiz-adv-x="1050" 
d="M1004 117v-117h-958v117h240l-136 415h-104v117h958v-117h-131v-415h131zM659 532l-135 -415h212v415h-77zM407 166l112 366h-225z" />
    <glyph glyph-name="uni2166" unicode="&#x2166;" horiz-adv-x="1330" 
d="M1284 117v-117h-1238v117h240l-136 415h-104v117h1237v-117h-135v-415h136zM1011 117v415h-139v-415h139zM658 532l-135 -415h212v415h-77zM407 166l111 366h-224z" />
    <glyph glyph-name="uni2167" unicode="&#x2167;" horiz-adv-x="1594" 
d="M1548 117v-117h-1502v117h239l-134 415h-105v117h1501v-117h-133v-415h134zM654 532l-132 -415h211v415h-79zM870 532v-415h135v415h-135zM1142 532v-415h135v415h-135zM405 166l110 366h-220z" />
    <glyph glyph-name="uni2168" unicode="&#x2168;" horiz-adv-x="1026" 
d="M980 117v-117h-934v117h132v415h-132v117h934v-117h-103l-154 -213l149 -202h108zM549 321l-154 211h-80v-415h83zM556 532l81 -115l81 115h-162zM634 225l-77 -108h154z" />
    <glyph glyph-name="uni2169" unicode="&#x2169;" horiz-adv-x="780" 
d="M734 649v-117h-103l-154 -213l149 -202h108v-117h-688v117h106l151 204l-154 211h-103v117h688zM310 532l80 -115l81 115h-161zM388 225l-77 -108h153z" />
    <glyph glyph-name="uni216C" unicode="&#x216c;" horiz-adv-x="658" 
d="M612 292v-292h-566v117h117v415h-117v117h382v-117h-128v-415h181v175h131z" />
    <glyph glyph-name="uni216D" unicode="&#x216d;" horiz-adv-x="736" 
d="M690 245v-245h-134v60q-65 -75 -182 -75q-138 0 -233 94t-95 245q0 150 95.5 245t230.5 95q114 0 180 -73v58h133v-240h-133q-9 54 -52 94t-122 40q-81 0 -140 -56.5t-59 -162.5q0 -101 58 -158.5t143 -57.5q81 0 124 43t52 94h134z" />
    <glyph glyph-name="uni216E" unicode="&#x216e;" horiz-adv-x="743" 
d="M382 649q141 -2 228 -89t87 -236q0 -150 -88.5 -237t-231.5 -87h-331v117h123v415h-123v117h336zM306 117h65q82 1 134.5 54.5t52.5 152.5q0 100 -53 154t-136 54h-63v-415z" />
    <glyph glyph-name="uni216F" unicode="&#x216f;" horiz-adv-x="1051" 
d="M375 117v-117h-329v117h117v415h-117v117h305l173 -433l169 433h312v-117h-117v-415h117v-117h-335v117h83v330l-179 -441h-101l-178 439v-328h80z" />
    <glyph glyph-name="arrowleft" unicode="&#x2190;" horiz-adv-x="1062" 
d="M254 72l-263 225l263 225v-168h747v-115h-747v-167z" />
    <glyph glyph-name="arrowup" unicode="&#x2191;" horiz-adv-x="486" 
d="M262 800l229 -267h-172v-680h-114v680h-174z" />
    <glyph glyph-name="arrowright" unicode="&#x2192;" horiz-adv-x="1085" 
d="M1050 297l-294 -235v177h-731v115h731v179z" />
    <glyph glyph-name="arrowdown" unicode="&#x2193;" horiz-adv-x="478" 
d="M460 117l-234 -269l-235 269h178v677h114v-677h177z" />
    <glyph glyph-name="uni2196" unicode="&#x2196;" horiz-adv-x="876" 
d="M64 708h332l-125 -126l514 -513l-81 -81l-514 513l-126 -127v334z" />
    <glyph glyph-name="uni2197" unicode="&#x2197;" horiz-adv-x="757" 
d="M334 708h332v-334l-127 127l-513 -513l-81 81l513 513z" />
    <glyph glyph-name="uni2198" unicode="&#x2198;" horiz-adv-x="858" 
d="M767 1h-332l124 125l-513 514l81 81l513 -514l127 128v-334z" />
    <glyph glyph-name="uni2199" unicode="&#x2199;" horiz-adv-x="748" 
d="M368 1h-332v334l126 -128l514 514l81 -81l-514 -514z" />
    <glyph glyph-name="uni21A9" unicode="&#x21a9;" horiz-adv-x="861" 
d="M241 50l-263 224l263 226v-169h360q53 0 89 29t36 74q0 47 -35 75t-92 28h-195v115h201q105 0 172 -62t67 -156t-66.5 -156.5t-172.5 -62.5h-364v-165z" />
    <glyph glyph-name="uni21B0" unicode="&#x21b0;" horiz-adv-x="804" 
d="M301 274l-263 225l263 226v-168h422v-557h-114v442h-308v-168z" />
    <glyph glyph-name="uni21B1" unicode="&#x21b1;" horiz-adv-x="749" 
d="M150 0h-115v557h442v168l263 -226l-263 -225v168h-327v-442z" />
    <glyph glyph-name="uni21B2" unicode="&#x21b2;" horiz-adv-x="771" 
d="M578 709h114v-557h-442v-168l-263 226l263 225v-168h328v442z" />
    <glyph glyph-name="uni21B3" unicode="&#x21b3;" horiz-adv-x="851" 
d="M515 435l263 -225l-263 -226v168h-442v557h115v-442h327v168z" />
    <glyph glyph-name="uni21B4" unicode="&#x21b4;" horiz-adv-x="799" 
d="M61 594v115h565v-467h168l-223 -257l-225 257h165v352h-450z" />
    <glyph glyph-name="uni21C6" unicode="&#x21c6;" horiz-adv-x="1167" 
d="M1112 162l-263 -224v167h-757v115h757v168zM327 332l-263 224l263 226v-170h756v-115h-756v-165z" />
    <glyph glyph-name="partialdiff" unicode="&#x2202;" horiz-adv-x="621" 
d="M252 600q-72 0 -145 -34l-46 106q88 49 199 49q42 0 82.5 -8.5t85 -33.5t77.5 -65t54.5 -108.5t21.5 -157.5q0 -163 -74 -263.5t-216 -100.5q-105 0 -180 64.5t-75 179.5q0 105 73.5 168t170.5 63q111 0 161 -56q-5 101 -57 149t-132 48zM310 346q-68 0 -103.5 -34.5
t-35.5 -89.5q0 -52 37.5 -83.5t87.5 -31.5q75 0 111 56t37 127q-48 56 -134 56z" />
    <glyph glyph-name="Delta" unicode="&#x2206;" horiz-adv-x="691" 
d="M0 0l270 709h150l271 -709h-691zM345 559l-154 -431h309z" />
    <glyph glyph-name="product" unicode="&#x220f;" horiz-adv-x="686" 
d="M605 0h-138v582h-248v-582h-138v709h524v-709z" />
    <glyph glyph-name="summation" unicode="&#x2211;" horiz-adv-x="569" 
d="M36 0v125l256 229l-256 230v125h514v-128h-325l252 -227l-261 -226h334v-128h-514z" />
    <glyph glyph-name="minus" unicode="&#x2212;" horiz-adv-x="573" 
d="M524 241h-475v109h475v-109z" />
    <glyph glyph-name="uni2215" unicode="&#x2215;" horiz-adv-x="444" 
d="M444 658l-324 -668h-120l323 668h121z" />
    <glyph glyph-name="uni2219" unicode="&#x2219;" horiz-adv-x="288" 
d="M61 309q0 36 25 60.5t61 24.5t61 -24.5t25 -60.5t-25 -60t-61 -24t-61 24t-25 60z" />
    <glyph glyph-name="radical" unicode="&#x221a;" horiz-adv-x="697" 
d="M729 768h-131l-258 -768h-118l-190 537h130l120 -354l228 696h219v-111z" />
    <glyph glyph-name="infinity" unicode="&#x221e;" horiz-adv-x="831" 
d="M414 201q-88 -96 -180 -96q-83 0 -137.5 52.5t-54.5 132.5t54.5 133t137.5 53q98 0 183 -99q91 99 180 99q83 0 137.5 -53t54.5 -133t-54.5 -132.5t-137.5 -52.5q-97 0 -183 96zM236 362q-34 0 -54.5 -21t-20.5 -52t20.5 -51.5t54.5 -20.5q49 0 107 70q-31 37 -55.5 56
t-51.5 19zM595 217q34 0 54.5 20.5t20.5 51.5t-20.5 52t-54.5 21q-27 0 -51 -18t-56 -55q60 -72 107 -72z" />
    <glyph glyph-name="integral" unicode="&#x222b;" horiz-adv-x="350" 
d="M109 -17v542q0 85 49.5 135t135.5 50h51v-118h-45q-27 0 -42.5 -17t-15.5 -48v-542q0 -85 -49 -135t-134 -50h-54v117h46q26 0 42 17.5t16 48.5z" />
    <glyph glyph-name="approxequal" unicode="&#x2248;" horiz-adv-x="594" 
d="M492 463l70 -59q-27 -48 -69.5 -74t-92.5 -26q-54 0 -108 30l-47 26q-29 15 -55 15q-49 0 -86 -48l-72 59q57 101 161 101q53 0 108 -30l48 -26q29 -16 56 -16q51 0 87 48zM492 261l70 -58q-58 -100 -161 -100q-56 0 -109 30l-47 26q-26 14 -52 14q-53 0 -89 -47l-72 59
q28 49 70 75t92 26q52 0 107 -30l48 -26q29 -16 57 -16q52 0 86 47z" />
    <glyph glyph-name="notequal" unicode="&#x2260;" horiz-adv-x="603" 
d="M544 142h-279l-63 -97h-120l63 97h-86v108h157l59 91h-216v107h286l60 92h120l-60 -92h79v-107h-149l-59 -91h208v-108z" />
    <glyph glyph-name="lessequal" unicode="&#x2264;" horiz-adv-x="545" 
d="M56 153h430v-109h-430v109zM56 316v108l430 136v-110l-279 -78l279 -79v-112z" />
    <glyph glyph-name="greaterequal" unicode="&#x2265;" horiz-adv-x="545" 
d="M59 153h430v-109h-430v109zM489 424v-108l-430 -135v110l279 78l-279 79v112z" />
    <glyph glyph-name="dotmath" unicode="&#x22c5;" horiz-adv-x="288" 
d="M61 309q0 36 25 60.5t61 24.5t61 -24.5t25 -60.5t-25 -60t-61 -24t-61 24t-25 60z" />
    <glyph glyph-name="uni24C5" unicode="&#x24c5;" horiz-adv-x="816" 
d="M124 354q0 -122 82 -206.5t201 -84.5t201 84.5t82 206.5q0 123 -82 207.5t-201 84.5t-201 -84.5t-82 -207.5zM39 354q0 153 107.5 262t260.5 109t261.5 -109t108.5 -262q0 -152 -108.5 -261t-261.5 -109t-260.5 108.5t-107.5 261.5zM377 370h54q27 0 42.5 14.5t15.5 38.5
q0 25 -15.5 39.5t-42.5 14.5h-54v-107zM448 292h-71v-137h-94v400h165q58 0 97.5 -38.5t39.5 -93.5q0 -54 -39.5 -92.5t-97.5 -38.5z" />
    <glyph glyph-name="filledbox" unicode="&#x25a0;" horiz-adv-x="908" 
d="M101 0v709h706v-709h-706z" />
    <glyph glyph-name="H22073" unicode="&#x25a1;" horiz-adv-x="908" 
d="M807 0h-706v709h706v-709zM215 597v-486h475v486h-475z" />
    <glyph glyph-name="triagup" unicode="&#x25b2;" horiz-adv-x="838" 
d="M421 725l417 -725h-838z" />
    <glyph glyph-name="uni25B3" unicode="&#x25b3;" horiz-adv-x="838" 
d="M419 725l419 -725h-838zM639 112l-220 384l-221 -384h441z" />
    <glyph glyph-name="lozenge" unicode="&#x25ca;" horiz-adv-x="617" 
d="M180 354l129 -222l128 222l-128 223zM29 354l207 355h145l207 -355l-207 -354h-145z" />
    <glyph glyph-name="circle" unicode="&#x25cb;" horiz-adv-x="813" 
d="M36 354q0 154 108.5 262.5t262.5 108.5t262 -108.5t108 -262.5t-108 -262t-262 -108t-262.5 108t-108.5 262zM151 354q0 -107 75 -182.5t181 -75.5q105 0 179 75.5t74 182.5t-74 182.5t-179 75.5q-106 0 -181 -75.5t-75 -182.5z" />
    <glyph glyph-name="H18533" unicode="&#x25cf;" horiz-adv-x="813" 
d="M36 354q0 154 108 262.5t262 108.5t262.5 -108.5t108.5 -262.5t-108.5 -262t-262.5 -108t-262 108t-108 262z" />
    <glyph glyph-name="uni262E" unicode="&#x262e;" horiz-adv-x="815" 
d="M776 354q0 -153 -108 -261.5t-261 -108.5t-260.5 108.5t-107.5 261.5q0 154 107.5 262.5t260.5 108.5t261 -108.5t108 -262.5zM663 354q0 93 -57.5 164.5t-144.5 91.5v-194l181 -157q21 47 21 95zM150 354q0 -49 19 -93l180 155v192q-86 -20 -142.5 -90.5t-56.5 -163.5z
M461 99q68 15 122 65l-122 110v-175zM228 166q50 -50 121 -67v175z" />
    <glyph glyph-name="uni2713" unicode="&#x2713;" horiz-adv-x="942" 
d="M926 645l-617 -661l-293 324l83 78l214 -233l531 573z" />
    <glyph glyph-name="uni2715" unicode="&#x2715;" horiz-adv-x="755" 
d="M656 -5l-280 279l-277 -279l-80 81l277 279l-277 277l81 80l276 -276l274 276l80 -80l-274 -277l280 -279z" />
    <glyph glyph-name="uni2780" unicode="&#x2780;" horiz-adv-x="822" 
d="M127 354q0 -122 82 -206.5t201 -84.5t201 84.5t82 206.5q0 123 -82 207.5t-201 84.5t-201 -84.5t-82 -207.5zM42 354q0 153 107.5 262t260.5 109t261.5 -109t108.5 -262q0 -152 -108.5 -261t-261.5 -109t-260.5 108.5t-107.5 261.5zM480 173h-103v223h-91v66
q44 0 70.5 23.5t32.5 54.5h91v-367z" />
    <glyph glyph-name="uni2781" unicode="&#x2781;" horiz-adv-x="822" 
d="M127 354q0 -122 82 -206.5t201 -84.5t201 84.5t82 206.5q0 123 -82 207.5t-201 84.5t-201 -84.5t-82 -207.5zM42 354q0 153 107.5 262t260.5 109t261.5 -109t108.5 -262q0 -152 -108.5 -261t-261.5 -109t-260.5 108.5t-107.5 261.5zM358 406l-91 -1q-4 14 -4 29
q0 54 38 89t106 35q65 0 103.5 -35t38.5 -87q0 -65 -79 -112l-70 -42q-12 -7 -12 -15h164v-85h-291v12q0 104 89 157l60 35q38 23 38 51q0 15 -11 27t-31 12q-24 0 -37.5 -14t-13.5 -38q0 -9 3 -18z" />
    <glyph glyph-name="uni2782" unicode="&#x2782;" horiz-adv-x="822" 
d="M127 354q0 -122 82 -206.5t201 -84.5t201 84.5t82 206.5q0 123 -82 207.5t-201 84.5t-201 -84.5t-82 -207.5zM42 354q0 153 107.5 262t260.5 109t261.5 -109t108.5 -262q0 -152 -108.5 -261t-261.5 -109t-260.5 108.5t-107.5 261.5zM253 275l91 21q2 -23 19 -38t42 -15
q24 0 39 12.5t15 31.5q0 22 -15.5 33.5t-37.5 11.5q-18 0 -32 -6l-33 68l87 59h-161v83h284v-82l-90 -61q46 -6 73.5 -34t27.5 -74q0 -52 -43 -88.5t-114 -36.5q-64 0 -105 34t-47 81z" />
    <glyph glyph-name="uni2783" unicode="&#x2783;" horiz-adv-x="822" 
d="M127 354q0 -122 82 -206.5t201 -84.5t201 84.5t82 206.5q0 123 -82 207.5t-201 84.5t-201 -84.5t-82 -207.5zM42 354q0 153 107.5 262t260.5 109t261.5 -109t108.5 -262q0 -152 -108.5 -261t-261.5 -109t-260.5 108.5t-107.5 261.5zM231 249v99l169 198h109v-218h61v-79
h-61v-71h-100v71h-178zM409 328v114l-97 -114h97z" />
    <glyph glyph-name="uni2784" unicode="&#x2784;" horiz-adv-x="822" 
d="M127 354q0 -122 82 -206.5t201 -84.5t201 84.5t82 206.5q0 123 -82 207.5t-201 84.5t-201 -84.5t-82 -207.5zM42 354q0 153 107.5 262t260.5 109t261.5 -109t108.5 -262q0 -152 -108.5 -261t-261.5 -109t-260.5 108.5t-107.5 261.5zM251 269l89 23q3 -23 20 -36.5
t41 -13.5t38.5 13t14.5 35q0 51 -56 51q-32 0 -52 -22l-83 25l46 189h222v-83h-162l-15 -63q26 23 71 23q59 0 94 -32t35 -87q0 -56 -41 -94t-112 -38q-59 0 -101 32t-49 78z" />
    <glyph glyph-name="uni2785" unicode="&#x2785;" horiz-adv-x="822" 
d="M127 354q0 -122 82 -206.5t201 -84.5t201 84.5t82 206.5q0 123 -82 207.5t-201 84.5t-201 -84.5t-82 -207.5zM42 354q0 153 107.5 262t260.5 109t261.5 -109t108.5 -262q0 -152 -108.5 -261t-261.5 -109t-260.5 108.5t-107.5 261.5zM542 531l-18 -77q-33 12 -65 12
q-42 0 -74 -20.5t-43 -61.5q30 32 85 32q57 0 93.5 -31t36.5 -88q0 -58 -44.5 -95.5t-112.5 -37.5t-114 45.5t-46 123.5q0 98 60.5 156t152.5 58q50 0 89 -16zM346 294q0 -21 16 -35t38 -14t38 14t16 35q0 23 -15.5 36.5t-38.5 13.5q-22 0 -38 -14t-16 -36z" />
    <glyph glyph-name="uni2786" unicode="&#x2786;" horiz-adv-x="822" 
d="M127 354q0 -122 82 -206.5t201 -84.5t201 84.5t82 206.5q0 123 -82 207.5t-201 84.5t-201 -84.5t-82 -207.5zM42 354q0 153 107.5 262t260.5 109t261.5 -109t108.5 -262q0 -152 -108.5 -261t-261.5 -109t-260.5 108.5t-107.5 261.5zM562 531v-85q-125 -99 -142 -283h-107
q4 51 18.5 99t32.5 80.5t35.5 57t29.5 36.5l12 11h-186v84h307z" />
    <glyph glyph-name="uni2787" unicode="&#x2787;" horiz-adv-x="822" 
d="M127 354q0 -122 82 -206.5t201 -84.5t201 84.5t82 206.5q0 123 -82 207.5t-201 84.5t-201 -84.5t-82 -207.5zM42 354q0 153 107.5 262t260.5 109t261.5 -109t108.5 -262q0 -152 -108.5 -261t-261.5 -109t-260.5 108.5t-107.5 261.5zM411 394q21 0 33 11t12 28
q0 14 -12 25t-33 11q-22 0 -34 -11t-12 -25q0 -17 12 -28t34 -11zM411 244q27 0 41 12.5t14 30.5q0 16 -14.5 28t-40.5 12q-27 0 -41 -12t-14 -28q0 -18 14 -30.5t41 -12.5zM411 165q-73 0 -114.5 30t-41.5 80q0 30 20 53.5t53 33.5q-29 9 -45.5 32t-16.5 50q0 46 39 75
t106 29t105.5 -29.5t38.5 -74.5q0 -27 -16.5 -50t-45.5 -32q32 -9 53 -32.5t21 -52.5q0 -51 -41 -81.5t-115 -30.5z" />
    <glyph glyph-name="uni2788" unicode="&#x2788;" horiz-adv-x="822" 
d="M127 354q0 -122 82 -206.5t201 -84.5t201 84.5t82 206.5q0 123 -82 207.5t-201 84.5t-201 -84.5t-82 -207.5zM42 354q0 153 107.5 262t260.5 109t261.5 -109t108.5 -262q0 -152 -108.5 -261t-261.5 -109t-260.5 108.5t-107.5 261.5zM278 180l17 78q36 -12 63 -12
q102 0 119 83q-30 -33 -86 -33q-55 0 -93.5 32t-38.5 87q0 59 43 96t114 37q68 0 113 -45.5t45 -124.5q0 -101 -57.5 -157.5t-147.5 -56.5q-50 0 -91 16zM467 418q0 21 -16 35t-38 14q-23 0 -38.5 -14t-15.5 -35q0 -23 15.5 -37t38.5 -14q22 0 38 14t16 37z" />
    <glyph glyph-name="uniE000" unicode="&#xe000;" horiz-adv-x="745" 
d="M222 -15l-223 257h168v467h565v-115h-450v-352h165z" />
    <glyph glyph-name="uni21B5" unicode="&#xe001;" horiz-adv-x="1110" 
d="M251 104l-215 250h153q1 153 109 262t261 109q91 0 174 -43l-53 -102q-57 30 -120 30q-106 0 -181 -75t-75 -181h161zM926 354q0 -154 -108 -262t-262 -108q-90 0 -173 43l52 102q60 -31 121 -31q106 0 180 75t74 181h-159l214 251l215 -251h-154z" />
    <glyph glyph-name="uniE002" unicode="&#xe002;" horiz-adv-x="956" 
d="M506 354l214 251l215 -251h-151q0 -154 -108 -262t-262 -108q-153 0 -261.5 108t-108.5 262t108.5 262.5t261.5 108.5q82 0 158 -35l-46 -106q-52 26 -111 26q-106 0 -181 -75t-75 -181t75 -181.5t181 -75.5q105 0 179 75.5t74 181.5h-162z" />
    <glyph glyph-name="uniFB00" unicode="&#xfb00;" horiz-adv-x="680" 
d="M553 546v-54h111v-114h-111v-378h-133v378h-190v-378h-134v378h-82v114h82v56q0 83 48.5 133t130.5 50q44 0 66 -10v-112q-17 5 -42 5q-27 0 -48 -15.5t-21 -52.5v-54h190v56q0 83 48.5 133t130.5 50q44 0 66 -10v-112q-17 5 -42 5q-27 0 -48 -15.5t-22 -52.5z" />
    <glyph glyph-name="fi" unicode="&#xfb01;" horiz-adv-x="631" 
d="M427 378h-197v-378h-134v378h-82v114h82v56q0 83 48.5 133t130.5 50q44 0 66 -10v-112q-17 5 -42 5q-27 0 -48 -15.5t-21 -52.5v-54h329v-492h-132v378zM411 654q0 34 24 58.5t58 24.5t58 -24.5t24 -58.5t-24 -57.5t-58 -23.5t-58 23.5t-24 57.5z" />
    <glyph glyph-name="fl" unicode="&#xfb02;" horiz-adv-x="630" 
d="M299 614q-27 0 -48 -15.5t-21 -52.5v-54h196v232h133v-724h-133v378h-196v-378h-134v378h-82v114h82v56q0 83 48.5 133t130.5 50q44 0 66 -10v-112q-17 5 -42 5z" />
    <glyph glyph-name="uniFB03" unicode="&#xfb03;" horiz-adv-x="957" 
d="M737 654q0 35 23.5 59t57.5 24t58.5 -24.5t24.5 -58.5t-24 -57.5t-59 -23.5q-34 0 -57.5 23.5t-23.5 57.5zM420 492v58q0 82 48.5 131.5t129.5 49.5q44 0 66 -10v-112q-18 5 -42 5q-27 0 -48 -15.5t-21 -52.5v-54h332v-492h-133v378h-199v-378h-133v378h-190v-378h-134
v378h-82v114h82v56q0 83 48.5 133t130.5 50q44 0 66 -10v-112q-17 5 -42 5q-27 0 -48 -15.5t-21 -52.5v-54h190z" />
    <glyph glyph-name="uniFB04" unicode="&#xfb04;" horiz-adv-x="957" 
d="M420 548q0 84 48.5 133.5t129.5 49.5q44 0 66 -10v-112q-18 5 -42 5q-27 0 -48 -15.5t-21 -52.5v-54h200v232h133v-724h-133v378h-200v-378h-133v378h-190v-378h-134v378h-82v114h82v56q0 83 48.5 133t130.5 50q44 0 66 -10v-112q-17 5 -42 5q-27 0 -48 -15.5t-21 -52.5
v-54h190v56z" />
    <glyph glyph-name="uniFEFF" unicode="&#xfeff;" horiz-adv-x="0" 
 />
    <glyph glyph-name="zero.numr" horiz-adv-x="434" 
d="M155 465q0 -107 62 -107q63 0 63 107q0 108 -63 108q-62 0 -62 -108zM51 465q0 83 36 131q45 61 130 61q86 0 131 -61q35 -48 35 -131q0 -82 -35 -130q-44 -61 -131 -61q-86 0 -130 61q-36 48 -36 130z" />
    <glyph glyph-name="one.numr" horiz-adv-x="313" 
d="M232 282h-103v223h-91v66q44 0 70.5 23.5t32.5 54.5h91v-367z" />
    <glyph glyph-name="two.numr" horiz-adv-x="394" 
d="M149 505l-91 -1q-4 14 -4 29q0 54 38 89t106 35q65 0 103.5 -35t38.5 -87q0 -65 -79 -112l-70 -42q-12 -7 -12 -15h164v-85h-291v12q0 104 89 157l60 35q38 23 38 51q0 15 -11 27t-31 12q-23 0 -37 -13.5t-14 -38.5q0 -9 3 -18z" />
    <glyph glyph-name="three.numr" horiz-adv-x="411" 
d="M51 388l91 21q2 -23 19 -38t42 -15q24 0 39 12.5t15 31.5q0 22 -15.5 33.5t-37.5 11.5q-18 0 -32 -6l-33 68l87 59h-161v83h284v-82l-90 -61q46 -6 73.5 -34t27.5 -74q0 -52 -43 -88.5t-114 -36.5q-64 0 -105 34t-47 81z" />
    <glyph glyph-name="four.numr" horiz-adv-x="441" 
d="M51 352v99l169 198h109v-218h61v-79h-61v-71h-100v71h-178zM229 431v114l-97 -114h97z" />
    <glyph glyph-name="five.numr" horiz-adv-x="395" 
d="M51 385l89 23q3 -23 20 -36.5t41 -13.5t38.5 13t14.5 35q0 51 -56 51q-32 0 -52 -22l-83 25l46 189h222v-83h-162l-15 -63q26 23 71 23q59 0 94 -32t35 -87q0 -56 -41 -94t-112 -38q-59 0 -101 32t-49 78z" />
    <glyph glyph-name="six.numr" horiz-adv-x="419" 
d="M353 639l-18 -77q-33 12 -65 12q-42 0 -74 -20.5t-43 -61.5q30 32 85 32q57 0 93.5 -31t36.5 -88q0 -58 -44.5 -95.5t-112.5 -37.5t-114 45.5t-46 123.5q0 98 60.5 156t152.5 58q50 0 89 -16zM157 402q0 -21 16 -35t38 -14t38 14t16 35q0 23 -15.5 36.5t-38.5 13.5
q-22 0 -38 -14t-16 -36z" />
    <glyph glyph-name="seven.numr" horiz-adv-x="409" 
d="M358 649v-85q-125 -99 -142 -283h-107q4 51 18.5 99t32.5 80.5t35.5 57t29.5 36.5l12 11h-186v84h307z" />
    <glyph glyph-name="eight.numr" horiz-adv-x="420" 
d="M210 502q21 0 33 11t12 28q0 14 -12 25t-33 11q-22 0 -34 -11t-12 -25q0 -17 12 -28t34 -11zM210 352q27 0 41 12.5t14 30.5q0 16 -14.5 28t-40.5 12q-27 0 -41 -12t-14 -28q0 -18 14 -30.5t41 -12.5zM210 273q-73 0 -114.5 30t-41.5 80q0 30 20 53.5t53 33.5
q-29 9 -45.5 32t-16.5 50q0 46 39 75t106 29t105.5 -29.5t38.5 -74.5q0 -27 -16.5 -50t-45.5 -32q32 -9 53 -32.5t21 -52.5q0 -51 -41 -81.5t-115 -30.5z" />
    <glyph glyph-name="nine.numr" horiz-adv-x="418" 
d="M70 288l17 78q36 -12 63 -12q102 0 119 83q-30 -33 -86 -33q-55 0 -93.5 32t-38.5 87q0 59 43 96t114 37q68 0 113 -45.5t45 -124.5q0 -101 -57.5 -157.5t-147.5 -56.5q-50 0 -91 16zM259 526q0 21 -16 35t-38 14q-23 0 -38.5 -14t-15.5 -35q0 -23 15.5 -37t38.5 -14
q22 0 38 14t16 37z" />
    <glyph glyph-name="zero.dnom" horiz-adv-x="434" 
d="M155 183q0 -107 62 -107q63 0 63 107q0 108 -63 108q-62 0 -62 -108zM51 183q0 83 36 131q45 61 130 61q86 0 131 -61q35 -48 35 -131q0 -82 -35 -130q-44 -61 -131 -61q-86 0 -130 61q-36 48 -36 130z" />
    <glyph glyph-name="one.dnom" horiz-adv-x="307" 
d="M232 0h-103v223h-91v66q44 0 70.5 23.5t32.5 54.5h91v-367z" />
    <glyph glyph-name="two.dnom" horiz-adv-x="394" 
d="M149 224l-91 -1q-4 14 -4 29q0 54 38 89t106 35q65 0 103.5 -35t38.5 -87q0 -65 -79 -112l-70 -42q-12 -7 -12 -15h164v-85h-291v12q0 104 89 157l60 35q38 23 38 51q0 15 -11 27t-31 12q-23 0 -37 -14t-14 -38q0 -9 3 -18z" />
    <glyph glyph-name="three.dnom" horiz-adv-x="411" 
d="M51 107l91 21q2 -23 19 -38t42 -15q24 0 39 12.5t15 31.5q0 22 -15.5 33.5t-37.5 11.5q-18 0 -32 -6l-33 68l87 59h-161v83h284v-82l-90 -61q46 -6 73.5 -34t27.5 -74q0 -52 -43 -88.5t-114 -36.5q-64 0 -105 34t-47 81z" />
    <glyph glyph-name="four.dnom" horiz-adv-x="441" 
d="M51 71v99l169 198h109v-218h61v-79h-61v-71h-100v71h-178zM229 150v114l-97 -114h97z" />
    <glyph glyph-name="five.dnom" horiz-adv-x="405" 
d="M51 103l89 23q3 -23 20 -36.5t41 -13.5t38.5 13t14.5 35q0 51 -56 51q-32 0 -52 -22l-83 25l46 189h222v-83h-162l-15 -63q26 23 71 23q59 0 94 -32t35 -87q0 -56 -41 -94t-112 -38q-59 0 -101 32t-49 78z" />
    <glyph glyph-name="six.dnom" horiz-adv-x="419" 
d="M353 359l-18 -77q-33 12 -65 12q-42 0 -74 -20.5t-43 -61.5q30 32 85 32q57 0 93.5 -31t36.5 -88q0 -58 -44.5 -95.5t-112.5 -37.5t-114 45.5t-46 123.5q0 98 60.5 156t152.5 58q50 0 89 -16zM157 122q0 -21 16 -35t38 -14t38 14t16 35q0 23 -15.5 36.5t-38.5 13.5
q-22 0 -38 -14t-16 -36z" />
    <glyph glyph-name="seven.dnom" horiz-adv-x="409" 
d="M358 368v-85q-125 -99 -142 -283h-107q4 51 18.5 99t32.5 80.5t35.5 57t29.5 35.5l12 12h-186v84h307z" />
    <glyph glyph-name="eight.dnom" horiz-adv-x="420" 
d="M210 221q21 0 33 11t12 28q0 14 -12 25t-33 11q-22 0 -34 -11t-12 -25q0 -17 12 -28t34 -11zM210 71q27 0 41 12.5t14 30.5q0 16 -14.5 28t-40.5 12q-27 0 -41 -12t-14 -28q0 -18 14 -30.5t41 -12.5zM210 -8q-73 0 -114.5 30t-41.5 80q0 30 20 53.5t53 33.5
q-29 9 -45.5 32t-16.5 50q0 46 39 75t106 29t105.5 -29.5t38.5 -74.5q0 -27 -16.5 -50t-45.5 -32q32 -9 53 -32.5t21 -52.5q0 -51 -41 -81.5t-115 -30.5z" />
    <glyph glyph-name="nine.dnom" horiz-adv-x="418" 
d="M70 8l17 78q36 -12 63 -12q102 0 119 83q-30 -33 -86 -33q-55 0 -93.5 32t-38.5 87q0 59 43 96t114 37q68 0 113 -45.5t45 -124.5q0 -101 -57.5 -157.5t-147.5 -56.5q-50 0 -91 16zM259 246q0 21 -16 35t-38 14q-23 0 -38.5 -14t-15.5 -35q0 -23 15.5 -37t38.5 -14
q22 0 38 14t16 37z" />
    <glyph glyph-name="space.frac" horiz-adv-x="49" 
 />
    <glyph glyph-name="a.ordn" horiz-adv-x="423" 
d="M55 397q0 88 103 104l83 14q25 4 25 24q0 17 -14 28t-39 11q-28 0 -44 -15t-18 -37l-89 18q3 44 43 79.5t108 35.5q78 0 115 -37.5t37 -95.5v-170q0 -29 5 -54h-93q-3 15 -3 40q-33 -50 -100 -50q-54 0 -86.5 31t-32.5 74zM198 366q29 0 48.5 17t19.5 56v16l-70 -11
q-40 -5 -40 -41q0 -15 11 -26t31 -11z" />
    <glyph glyph-name="b.ordn" horiz-adv-x="503" 
d="M181 302h-98v507h100v-195q12 18 39.5 31t62.5 13q74 0 117.5 -51t43.5 -131q0 -79 -46.5 -130.5t-118.5 -51.5q-70 0 -100 48v-40zM344 476q0 43 -23 66.5t-59 23.5q-34 0 -57 -23.5t-23 -66.5q0 -42 23.5 -66.5t56.5 -24.5q35 0 58.5 24t23.5 67z" />
    <glyph glyph-name="c.ordn" horiz-adv-x="461" 
d="M242 565q-35 0 -58.5 -24t-23.5 -66t24 -66t60 -24q57 0 74 54l90 -28q-13 -49 -56 -84t-108 -35q-79 0 -132.5 52t-53.5 131q0 80 52.5 132t129.5 52q67 0 110 -34.5t56 -84.5l-92 -29q-15 54 -72 54z" />
    <glyph glyph-name="d.ordn" horiz-adv-x="505" 
d="M161 476q0 -43 23 -67t58 -24q34 0 57 24t23 67q0 42 -23 66t-57 24q-35 0 -58 -23.5t-23 -66.5zM421 809v-445q0 -26 3 -62h-98q-2 16 -2 38q-11 -20 -36.5 -33t-58.5 -13q-74 0 -122.5 51.5t-48.5 130.5q0 78 47.5 130t120.5 52q72 0 95 -39v190h100z" />
    <glyph glyph-name="e.ordn" horiz-adv-x="453" 
d="M156 516h144q-1 26 -18.5 44t-53.5 18q-32 0 -51 -19t-21 -43zM308 426l86 -24q-14 -48 -56 -79t-104 -31q-75 0 -127.5 50t-52.5 135q0 80 51.5 131t121.5 51q80 0 126 -47.5t46 -131.5q0 -27 -2 -31h-243q2 -31 25.5 -51t56.5 -20q55 0 72 48z" />
    <glyph glyph-name="f.ordn" horiz-adv-x="343" 
d="M288 563h-76v-261h-103v261h-56v86h56v33q0 60 35 96.5t96 36.5q32 0 50 -7v-85q-14 4 -32 4t-32 -10.5t-14 -34.5v-33h76v-86z" />
    <glyph glyph-name="g.ordn" horiz-adv-x="467" 
d="M58 282l90 26q6 -27 26.5 -43.5t51.5 -16.5q88 0 88 92v18q-29 -41 -94 -41q-70 0 -116 48t-46 120q0 70 46 120t116 50q38 0 62.5 -13.5t33.5 -31.5v38h98v-305q0 -80 -46 -132t-138 -52q-70 0 -117 36.5t-55 86.5zM238 406q34 0 55.5 21.5t21.5 57.5t-22.5 58.5
t-54.5 22.5t-54.5 -22t-22.5 -59q0 -36 21.5 -57.5t55.5 -21.5z" />
    <glyph glyph-name="h.ordn" horiz-adv-x="487" 
d="M185 506v-204h-102v507h102v-185q30 34 90 34q64 0 97.5 -38.5t33.5 -99.5v-218h-102v201q0 28 -15 45t-44 17q-26 0 -42 -16.5t-18 -42.5z" />
    <glyph glyph-name="i.ordn" horiz-adv-x="285" 
d="M194 302h-102v346h102v-346zM82 757q0 25 17.5 43t42.5 18q26 0 44 -18t18 -43t-18 -42.5t-44 -17.5q-25 0 -42.5 17.5t-17.5 42.5z" />
    <glyph glyph-name="j.ordn" horiz-adv-x="327" 
d="M138 286v362h102v-373q0 -52 -31 -84t-82 -32q-35 0 -57 9v85q14 -4 31 -4q37 0 37 37zM128 758q0 25 17.5 43t42.5 18t43.5 -18t18.5 -43t-18 -43t-44 -18q-25 0 -42.5 18t-17.5 43z" />
    <glyph glyph-name="k.ordn" horiz-adv-x="463" 
d="M428 648l-137 -145l139 -201h-124l-86 125l-35 -37v-88h-102v507h102v-281l110 120h133z" />
    <glyph glyph-name="l.ordn" horiz-adv-x="267" 
d="M185 302h-102v507h102v-507z" />
    <glyph glyph-name="m.ordn" horiz-adv-x="701" 
d="M185 302h-102v346h98v-40q12 23 41 37t58 14q74 0 104 -56q36 56 107 56q54 0 91 -33.5t37 -98.5v-225h-99v202q0 61 -57 61q-28 0 -44 -18t-16 -44v-201h-101v202q0 28 -14.5 44.5t-43.5 16.5q-27 0 -43 -18t-16 -44v-201z" />
    <glyph glyph-name="n.ordn" horiz-adv-x="487" 
d="M185 501v-199h-102v346h99v-40q13 24 41 37t57 13q62 0 94 -39t32 -99v-218h-102v201q0 28 -15 45t-44 17q-28 0 -44 -18t-16 -46z" />
    <glyph glyph-name="o.ordn" horiz-adv-x="482" 
d="M242 385q34 0 57.5 24t23.5 67t-23.5 66.5t-57.5 23.5t-57.5 -23.5t-23.5 -66.5t23.5 -67t57.5 -24zM242 659q78 0 130.5 -51.5t52.5 -131.5t-52.5 -132t-130.5 -52q-79 0 -131.5 52t-52.5 132t52.5 131.5t131.5 51.5z" />
    <glyph glyph-name="p.ordn" horiz-adv-x="503" 
d="M185 169h-102v479h98v-37q31 46 104 46q74 0 117.5 -50.5t43.5 -130.5q0 -79 -46.5 -130.5t-118.5 -51.5q-68 0 -96 37v-162zM345 476q0 42 -23 65.5t-57 23.5q-35 0 -58.5 -23.5t-23.5 -65.5q0 -43 23.5 -67t58.5 -24q34 0 57 24t23 67z" />
    <glyph glyph-name="q.ordn" horiz-adv-x="500" 
d="M422 169h-100v163q-26 -38 -93 -38q-74 0 -122.5 51.5t-48.5 130.5q0 78 47 129.5t121 51.5q41 0 65.5 -14t32.5 -30v35h98v-479zM161 476q0 -42 23.5 -66.5t57.5 -24.5t57.5 24.5t23.5 66.5t-23.5 65.5t-57.5 23.5q-35 0 -58 -23.5t-23 -65.5z" />
    <glyph glyph-name="r.ordn" horiz-adv-x="305" 
d="M296 649v-101q-8 2 -23 2q-92 0 -92 -95v-153h-102v346h99v-47q12 23 37.5 37t56.5 14q12 0 24 -3z" />
    <glyph glyph-name="s.ordn" horiz-adv-x="399" 
d="M59 400l87 16q1 -20 15.5 -34t41.5 -14q42 0 42 31q0 23 -35 30l-41 9q-102 24 -102 106q0 48 38 81.5t94 33.5q67 0 100.5 -32t37.5 -70l-85 -16q-6 43 -52 43q-16 0 -28 -9t-12 -22q0 -21 29 -28l47 -10q52 -10 79 -39t27 -68q0 -47 -36 -81.5t-102 -34.5
q-71 0 -106.5 34.5t-38.5 73.5z" />
    <glyph glyph-name="t.ordn" horiz-adv-x="327" 
d="M202 751v-103h68v-89h-68v-135q0 -37 39 -37q15 0 29 2v-84q-18 -9 -55 -9q-53 0 -83.5 29.5t-30.5 80.5v153h-62v89h18q26 0 40 16t14 40v47h91z" />
    <glyph glyph-name="u.ordn" horiz-adv-x="462" 
d="M287 302q-3 21 -3 36q-27 -44 -94 -44q-61 0 -96.5 38.5t-35.5 96.5v219h102v-197q0 -28 15 -46t43 -18t44.5 17.5t16.5 45.5v198h102v-284q0 -30 3 -62h-97z" />
    <glyph glyph-name="v.ordn" horiz-adv-x="421" 
d="M399 648l-133 -346h-102l-142 346h111l82 -220l77 220h107z" />
    <glyph glyph-name="w.ordn" horiz-adv-x="628" 
d="M263 648h108l70 -210l59 210h101l-108 -346h-101l-78 228l-76 -228h-103l-109 346h107l59 -210z" />
    <glyph glyph-name="x.ordn" horiz-adv-x="424" 
d="M30 302l121 173l-122 173h121q5 -8 63 -95l64 95h114l-119 -169q18 -26 61 -88t62 -89h-119l-67 100q-9 -13 -33.5 -50.5t-32.5 -49.5h-113z" />
    <glyph glyph-name="y.ordn" horiz-adv-x="433" 
d="M197 168h-107l79 179l-146 301h114l88 -191l79 191h108z" />
    <glyph glyph-name="z.ordn" horiz-adv-x="406" 
d="M348 302h-290v90l156 169h-152v87h283v-84l-162 -174h165v-88z" />
    <glyph glyph-name="space.tf" 
 />
    <glyph glyph-name="numbersign.tf" 
d="M515 649l-34 -157h88v-98h-109l-29 -136h88v-97h-109l-34 -161h-106l34 161h-106l-34 -161h-106l34 161h-83v97h104l29 136h-83v98h104l34 157h106l-34 -157h106l34 157h106zM248 394l-29 -136h106l29 136h-106z" />
    <glyph glyph-name="dollar.tf" 
d="M352 -112h-101v106q-95 13 -149.5 72.5t-62.5 130.5l123 29q5 -51 39.5 -85t98.5 -34q48 0 75 20t27 54q0 53 -74 70l-91 20q-81 17 -127 66t-46 120q0 76 53 130.5t134 67.5v106h101v-109q78 -14 121.5 -61t55.5 -105l-122 -34q-6 35 -32.5 63t-80.5 28q-45 0 -71 -22.5
t-26 -54.5q0 -24 17 -41.5t51 -24.5l90 -21q90 -20 135 -70t45 -120q0 -71 -48.5 -125.5t-134.5 -68.5v-107z" />
    <glyph glyph-name="percent.tf" 
d="M525 537v-98l-482 -328v97zM109 518q0 -25 15.5 -41t38.5 -16t38.5 16t15.5 41t-15.5 41t-38.5 16t-38.5 -16t-15.5 -41zM22 518q0 58 41.5 98.5t99.5 40.5t99.5 -40.5t41.5 -98.5q0 -59 -41.5 -98.5t-100.5 -39.5q-58 0 -99 40t-41 98zM360 131q0 -25 15.5 -41t38.5 -16
t38.5 16t15.5 41t-15.5 41t-38.5 16t-38.5 -16t-15.5 -41zM273 131q0 58 41.5 98.5t99.5 40.5t99.5 -40.5t41.5 -98.5q0 -59 -41.5 -98.5t-100.5 -39.5q-58 0 -99 40t-41 98z" />
    <glyph glyph-name="plus.tf" 
d="M44 349h189v195h112v-195h190v-109h-190v-196h-112v196h-189v109z" />
    <glyph glyph-name="comma.tf" 
d="M182 90q0 40 29.5 67t72.5 27q51 0 81 -36.5t30 -92.5q0 -112 -61 -173.5t-136 -70.5v71q40 10 72.5 44t33.5 77q-8 -6 -29 -6q-41 0 -67 26t-26 67z" />
    <glyph glyph-name="period.tf" 
d="M187 94q0 42 30 72t72 30q43 0 73 -30t30 -72t-30 -72t-73 -30q-42 0 -72 30t-30 72z" />
    <glyph glyph-name="zero.tf" 
d="M169 324q0 -36 1.5 -61.5t8.5 -57.5t19 -51.5t35 -33.5t56 -14t56 14t35 33.5t19 51.5t8.5 57.5t1.5 61.5t-1.5 61.5t-8.5 57.5t-19 51.5t-35 33.5t-56 14t-56 -14t-35 -33.5t-19 -51.5t-8.5 -57.5t-1.5 -61.5zM30 324q0 155 52 234q70 106 207 106t206 -105
q53 -80 53 -235q0 -156 -53 -236q-70 -104 -206 -104t-206 104q-53 80 -53 236z" />
    <glyph glyph-name="one.tf" 
d="M85 117h163v317h-150v93q69 1 113.5 35t53.5 87h119v-532h151v-117h-450v117z" />
    <glyph glyph-name="two.tf" 
d="M190 398l-131 4q-5 22 -5 45q0 90 64 153.5t173 63.5q106 0 170 -60.5t64 -148.5q0 -124 -126 -201l-125 -76q-44 -28 -56 -59h311v-119h-480q1 91 35.5 159t117.5 118l107 64q77 46 77 112q0 37 -26 63t-72 26q-50 0 -76.5 -30t-26.5 -78q0 -18 5 -36z" />
    <glyph glyph-name="three.tf" 
d="M223 288l-61 96l170 146h-284v119h459v-111l-168 -140q77 -3 132.5 -57.5t55.5 -140.5q0 -88 -68 -151.5t-181 -63.5q-109 0 -177 60.5t-74 146.5l133 26q2 -50 34.5 -82t83.5 -32q50 0 80 28t30 70q0 45 -29.5 70.5t-76.5 25.5q-31 0 -59 -10z" />
    <glyph glyph-name="four.tf" 
d="M32 139v144l270 366h170v-392h93v-118h-93v-139h-137v139h-303zM335 257v248l-182 -248h182z" />
    <glyph glyph-name="five.tf" 
d="M46 182l129 29q2 -46 34.5 -77.5t83.5 -31.5q48 0 80 29t32 77q0 53 -33.5 81t-81.5 28q-62 0 -100 -44q-71 27 -126 43l77 333h366v-119h-272l-32 -143q43 40 117 40q100 0 161 -57.5t61 -159.5q0 -94 -68 -160t-181 -66q-102 0 -171.5 59t-75.5 139z" />
    <glyph glyph-name="six.tf" 
d="M534 634l-38 -112q-49 22 -110 22q-85 0 -144 -49.5t-69 -137.5q19 31 59.5 52.5t96.5 21.5q96 0 156.5 -60.5t60.5 -157.5q0 -99 -71 -163.5t-177 -64.5q-122 0 -191.5 86.5t-69.5 212.5q0 173 99.5 276.5t260.5 103.5q86 0 137 -30zM186 210q0 -48 32.5 -78.5
t78.5 -30.5t78.5 30t32.5 79t-32 78.5t-79 29.5t-79 -29.5t-32 -78.5z" />
    <glyph glyph-name="seven.tf" 
d="M543 649v-115q-241 -207 -270 -534h-143q8 98 36.5 188.5t64.5 150t71 105t58 66.5l24 20h-357v119h516z" />
    <glyph glyph-name="eight.tf" 
d="M289 383q44 1 70 25t26 60q0 34 -26 58t-70 24q-43 0 -69 -24t-26 -58q0 -36 25.5 -60t69.5 -25zM289 99q51 0 80.5 26.5t29.5 63.5q0 38 -29 65t-81 27t-80.5 -27t-28.5 -65q0 -37 29 -63.5t80 -26.5zM289 -15q-110 0 -177.5 53t-67.5 137q0 52 31.5 95t83.5 63
q-47 17 -74.5 58.5t-27.5 86.5q0 82 65.5 134t166.5 52t166.5 -52t65.5 -134q0 -45 -27 -86.5t-74 -58.5q51 -19 82.5 -62.5t31.5 -95.5q0 -84 -67.5 -137t-177.5 -53z" />
    <glyph glyph-name="nine.tf" 
d="M43 21l34 111q50 -28 115 -28q90 0 145 47.5t61 135.5q-20 -31 -59.5 -50t-88.5 -19q-92 0 -156.5 60.5t-64.5 157.5q0 99 70 163.5t177 64.5q109 0 182.5 -80t73.5 -227q0 -176 -87 -274t-251 -98q-93 0 -151 36zM380 440q0 47 -32 76.5t-77 29.5t-76.5 -29.5
t-31.5 -76.5q0 -48 31 -77t77 -29q45 0 77 29.5t32 76.5z" />
    <glyph glyph-name="colon.tf" 
d="M190 83q0 40 29 68.5t69 28.5t69 -28.5t29 -68.5t-28.5 -68.5t-69.5 -28.5t-69.5 28.5t-28.5 68.5zM190 410q0 40 29 68.5t69 28.5t69 -28.5t29 -68.5t-28.5 -68.5t-69.5 -28.5t-69.5 28.5t-28.5 68.5z" />
    <glyph glyph-name="semicolon.tf" 
d="M191 86q0 38 27 63t67 25q48 0 76 -34t28 -86q0 -54 -17.5 -98t-46 -70t-59 -40.5t-61.5 -18.5v67q38 8 68 39.5t31 72.5q-8 -6 -27 -6q-38 0 -62 24t-24 62zM191 407q0 40 29 68.5t69 28.5t69 -28.5t29 -68.5t-28.5 -68.5t-69.5 -28.5t-69.5 28.5t-28.5 68.5z" />
    <glyph glyph-name="less.tf" 
d="M72 244v101l430 217v-123l-296 -143l296 -143v-125z" />
    <glyph glyph-name="equal.tf" 
d="M532 341h-485v107h485v-107zM532 142h-485v108h485v-108z" />
    <glyph glyph-name="greater.tf" 
d="M506 345v-100l-430 -217v123l296 143l-296 143v125z" />
    <glyph glyph-name="cent.tf" 
d="M353 0h-102v87q-84 18 -136.5 82.5t-52.5 152.5q0 90 52.5 154.5t136.5 81.5v91h102v-90q69 -11 113.5 -53t59.5 -96l-114 -37q-22 77 -104 77q-51 0 -85 -34.5t-34 -93.5t34.5 -93.5t86.5 -34.5q44 0 71 23t36 53l112 -36q-15 -54 -61 -96.5t-115 -53.5v-84z" />
    <glyph glyph-name="sterling.tf" 
d="M62 375h61q-18 50 -18 95q0 80 57.5 137t151.5 57q93 0 149.5 -49.5t57.5 -139.5l-120 -18q0 45 -22 70t-63 25q-37 0 -59.5 -23t-22.5 -62q0 -37 22 -92h179v-102h-146q1 -7 1 -21q0 -92 -73 -136h131q38 0 60 23.5t22 60.5l119 -10q0 -83 -49.5 -136.5t-129.5 -53.5
h-312v111q49 17 77.5 50.5t28.5 76.5q0 13 -4 35h-98v102z" />
    <glyph glyph-name="currency.tf" 
d="M74 245q0 59 30 108l-72 73l80 80l74 -75q51 27 105 27q56 0 103 -26l73 74l80 -80l-71 -71q31 -50 31 -110q0 -58 -30 -109l70 -71l-80 -80l-72 73q-47 -26 -104 -26q-59 0 -107 27l-72 -74l-80 80l71 72q-29 52 -29 108zM186 245q0 -46 29.5 -75.5t75.5 -29.5
t75.5 29.5t29.5 75.5t-29.5 75.5t-75.5 29.5t-75.5 -29.5t-29.5 -75.5z" />
    <glyph glyph-name="yen.tf" 
d="M522 135h-167v-135h-130v135h-161v94h161v70h-161v93h96l-147 257h151l129 -245l127 245h145l-146 -257h103v-93h-167v-70h167v-94z" />
    <glyph glyph-name="section.tf" horiz-adv-x="579" 
d="M499 253q0 -83 -77 -125q77 -54 77 -142q0 -84 -63 -137.5t-148 -53.5q-96 0 -151.5 50.5t-59.5 135.5l124 21q0 -46 23.5 -70.5t64.5 -24.5q33 0 54.5 19.5t21.5 50.5q0 39 -44 62l-101 53q-67 33 -103.5 72t-36.5 102q0 82 76 124q-76 56 -76 143q0 84 63 137.5
t149 53.5q94 0 150.5 -52t59.5 -135l-126 -20q0 46 -23 70t-62 24q-35 0 -56.5 -19.5t-21.5 -50.5q0 -41 44 -61l100 -52q68 -35 105 -74t37 -101zM334 294l-101 53q-32 -25 -32 -56q0 -44 43 -66l101 -54q32 25 32 57q0 43 -43 66z" />
    <glyph glyph-name="logicalnot.tf" 
d="M520 136h-114v195h-375v110h489v-305z" />
    <glyph glyph-name="plusminus.tf" 
d="M55 421h178v123h112v-123h178v-108h-178v-123h-112v123h-178v108zM55 153h468v-109h-468v109z" />
    <glyph glyph-name="multiply.tf" 
d="M454 47l-166 168l-165 -167l-79 79l165 168l-165 168l80 79l164 -167l165 167l80 -78l-166 -169l166 -168z" />
    <glyph glyph-name="divide.tf" 
d="M208 479q0 32 23 54.5t55 22.5t55 -22.5t23 -54.5t-23 -55t-55 -23t-55 23t-23 55zM44 240v111h489v-111h-489zM208 112q0 32 23 55t55 23t55 -23t23 -55t-23 -55t-55 -23t-55 23t-23 55z" />
    <glyph glyph-name="florin.tf" 
d="M160 27l71 352h-98v112h121l19 92q15 78 68 117.5t119 39.5q49 0 89 -13v-115q-31 7 -62 7q-69 0 -84 -75l-11 -53h117v-112h-140l-79 -392q-16 -78 -68.5 -117.5t-118.5 -39.5q-50 0 -92 14v114q31 -7 65 -7q69 0 84 76z" />
    <glyph glyph-name="uni2007.tf" 
 />
    <glyph glyph-name="uni2008.tf" 
 />
    <glyph glyph-name="perthousand.tf" 
d="M533 615v-98l-489 -351v97zM97 536q0 -22 14 -36.5t34 -14.5q21 0 34.5 14.5t13.5 36.5t-13.5 36t-34.5 14t-34.5 -14t-13.5 -36zM21 536q0 51 36.5 87t87.5 36t88 -36t37 -87q0 -52 -36.5 -87t-88.5 -35q-51 0 -87.5 35.5t-36.5 86.5zM131 113q0 51 37 87t88 36
q50 0 87 -37q37 37 88 37t88 -36t37 -87q0 -52 -37 -87t-88 -35q-54 0 -88 36q-34 -36 -87 -36q-52 0 -88.5 35.5t-36.5 86.5zM431 163q-21 0 -34 -14t-13 -36q0 -23 13 -37t34 -14t34 14t13 37q0 22 -13 36t-34 14zM256 163q-21 0 -35 -14t-14 -36t14 -36.5t35 -14.5t34 14
t13 37q0 22 -13 36t-34 14z" />
    <glyph glyph-name="Euro.tf" 
d="M110 326q0 14 1 28h-66v94h85q35 100 121.5 158t192.5 58q68 0 121 -21l-33 -113q-37 14 -88 14q-117 0 -169 -96h234l-27 -94h-233q-2 -13 -2 -33q0 -17 2 -31h218l-27 -94h-162q53 -89 168 -89q51 0 88 14l31 -112q-52 -24 -119 -24q-108 0 -193.5 56t-121.5 155h-86
v94h67q-2 15 -2 36z" />
    <glyph glyph-name="minus.tf" 
d="M526 241h-475v109h475v-109z" />
    <glyph glyph-name="approxequal.tf" 
d="M483 463l71 -59q-58 -100 -162 -100q-54 0 -108 30l-48 26q-27 15 -54 15q-52 -2 -86 -48l-73 59q59 101 162 101q53 0 108 -30l47 -26q27 -14 57 -16q51 0 86 48zM483 261l71 -58q-57 -100 -163 -100q-53 0 -107 30l-48 26q-25 14 -55 14q-50 0 -85 -47l-73 59
q57 99 160 101q53 0 110 -30l47 -26q30 -16 57 -16q52 0 86 47z" />
    <glyph glyph-name="notequal.tf" 
d="M531 142h-275l-63 -97h-120l63 97h-90v108h161l59 91h-220v107h290l60 92h120l-60 -92h75v-107h-145l-59 -91h204v-108z" />
    <glyph glyph-name="lessequal.tf" 
d="M74 153h430v-109h-430v109zM74 316v108l430 136v-110l-279 -78l279 -79v-112z" />
    <glyph glyph-name="greaterequal.tf" 
d="M74 153h430v-109h-430v109zM504 424v-108l-430 -135v110l279 78l-279 79v112z" />
    <glyph glyph-name="parenleft.case" horiz-adv-x="315" 
d="M43 354q0 268 194 466l78 -67q-81 -93 -121 -185.5t-40 -213.5t40 -214t121 -186l-78 -66q-194 198 -194 466z" />
    <glyph glyph-name="parenright.case" horiz-adv-x="315" 
d="M272 354q0 -268 -194 -466l-78 66q81 93 121 186t40 214t-40 213.5t-121 185.5l78 67q194 -198 194 -466z" />
    <glyph glyph-name="hyphen.case" horiz-adv-x="380" 
d="M335 288h-290v118h290v-118z" />
    <glyph glyph-name="bracketleft.case" horiz-adv-x="317" 
d="M312 -109h-231v925h231v-101h-120v-721h120v-103z" />
    <glyph glyph-name="bracketright.case" horiz-adv-x="317" 
d="M236 -109h-231v103h119v721h-119v101h231v-925z" />
    <glyph glyph-name="braceleft.case" horiz-adv-x="375" 
d="M45 299v111q100 0 100 93v120q0 96 51 144.5t143 48.5h31v-101h-30q-83 0 -83 -89v-145q0 -48 -26.5 -81t-74.5 -45q48 -13 74.5 -46t26.5 -80v-146q0 -89 83 -89h30v-101h-31q-92 0 -143 48.5t-51 144.5v120q0 93 -100 93z" />
    <glyph glyph-name="braceright.case" horiz-adv-x="375" 
d="M330 410v-111q-101 0 -101 -93v-120q0 -96 -51 -144.5t-142 -48.5h-31v101h29q84 0 84 89v146q0 47 26.5 80t73.5 46q-48 12 -74 45t-26 81v145q0 89 -84 89h-29v101h31q92 0 142.5 -48.5t50.5 -144.5v-120q0 -93 101 -93z" />
    <glyph glyph-name="exclamdown.case" horiz-adv-x="316" 
d="M207 493l31 -493h-160l32 493h97zM79 638q0 32 23 55.5t56 23.5q32 0 55.5 -23.5t23.5 -55.5q0 -33 -23.5 -56.5t-55.5 -23.5q-33 0 -56 23.5t-23 56.5z" />
    <glyph glyph-name="guillemotleft.case" horiz-adv-x="524" 
d="M290 151h-126l-137 194l138 197h125l-136 -198zM506 151h-126l-136 194l137 197h126l-137 -198z" />
    <glyph glyph-name="uni00AD.case" horiz-adv-x="380" 
d="M335 295h-290v118h290v-118z" />
    <glyph glyph-name="guillemotright.case" horiz-adv-x="524" 
d="M360 151h-126l136 193l-136 198h125l138 -197zM144 151h-126l135 193l-136 198h125l138 -197z" />
    <glyph glyph-name="questiondown.case" horiz-adv-x="517" 
d="M218 494h108q3 -20 3 -41q0 -90 -77 -146l-48 -35q-42 -31 -42 -79q0 -37 25.5 -63t73.5 -26q50 0 76.5 31t26.5 75q0 25 -6 41l128 -12q5 -23 5 -44q0 -86 -61.5 -148t-168.5 -62q-110 0 -172.5 59t-62.5 140q0 109 97 178l41 29q54 38 54 97v6zM191 638q0 33 23.5 56
t56.5 23t56 -23t23 -56t-23 -56t-56 -23t-56.5 23t-23.5 56z" />
    <glyph glyph-name="endash.case" horiz-adv-x="632" 
d="M574 289h-516v115h516v-115z" />
    <glyph glyph-name="emdash.case" horiz-adv-x="1076" 
d="M1008 289h-940v115h940v-115z" />
    <glyph glyph-name="guilsinglleft.case" horiz-adv-x="307" 
d="M290 151h-126l-137 194l138 197h125l-136 -198z" />
    <glyph glyph-name="guilsinglright.case" horiz-adv-x="307" 
d="M144 151h-126l135 193l-136 198h126l137 -197z" />
    <glyph glyph-name="G.ss01" horiz-adv-x="774" 
d="M405 -15q-153 0 -259.5 102.5t-106.5 266.5q0 163 106.5 266.5t256.5 103.5q133 0 217.5 -67.5t109.5 -162.5l-135 -38q-14 57 -62 98.5t-130 41.5q-91 0 -156.5 -62t-65.5 -180q0 -114 65 -178t160 -64q72 0 124.5 36t63.5 97h-250v120h394q3 -16 3 -51
q-2 -141 -92.5 -235t-242.5 -94z" />
    <glyph glyph-name="a.ss02" horiz-adv-x="612" 
d="M168 248q0 -66 34.5 -106.5t88.5 -40.5q53 0 87 40.5t34 106.5t-33.5 104.5t-87.5 38.5t-88.5 -38.5t-34.5 -104.5zM413 61v6q-16 -36 -53 -58.5t-85 -22.5q-107 0 -174 74.5t-67 187.5q0 110 66 184t171 74q59 0 94 -23.5t47 -51.5v61h129v-403q0 -45 4 -89h-127
q-5 28 -5 61z" />
    <glyph glyph-name="agrave.ss02" horiz-adv-x="612" 
d="M168 248q0 -66 34.5 -106.5t88.5 -40.5q53 0 87 40.5t34 106.5t-33.5 104.5t-87.5 38.5t-88.5 -38.5t-34.5 -104.5zM413 61v6q-16 -36 -53 -58.5t-85 -22.5q-107 0 -174 74.5t-67 187.5q0 110 66 184t171 74q59 0 94 -23.5t47 -51.5v61h129v-403q0 -45 4 -89h-127
q-5 28 -5 61zM254 551l-136 150h154l90 -150h-108z" />
    <glyph glyph-name="aacute.ss02" horiz-adv-x="612" 
d="M452 701l-136 -150h-107l91 150h152zM168 248q0 -66 34.5 -106.5t88.5 -40.5q53 0 87 40.5t34 106.5t-33.5 104.5t-87.5 38.5t-88.5 -38.5t-34.5 -104.5zM413 61v6q-16 -36 -53 -58.5t-85 -22.5q-107 0 -174 74.5t-67 187.5q0 110 66 184t171 74q59 0 94 -23.5t47 -51.5
v61h129v-403q0 -45 4 -89h-127q-5 28 -5 61z" />
    <glyph glyph-name="acircumflex.ss02" horiz-adv-x="612" 
d="M227 552h-104l110 147h132l110 -147h-107l-71 75zM168 248q0 -66 34.5 -106.5t88.5 -40.5q53 0 87 40.5t34 106.5t-33.5 104.5t-87.5 38.5t-88.5 -38.5t-34.5 -104.5zM413 61v6q-16 -36 -53 -58.5t-85 -22.5q-107 0 -174 74.5t-67 187.5q0 110 66 184t171 74
q59 0 94 -23.5t47 -51.5v61h129v-403q0 -45 4 -89h-127q-5 28 -5 61z" />
    <glyph glyph-name="atilde.ss02" horiz-adv-x="612" 
d="M168 248q0 -66 34.5 -106.5t88.5 -40.5q53 0 87 40.5t34 106.5t-33.5 104.5t-87.5 38.5t-88.5 -38.5t-34.5 -104.5zM413 61v6q-16 -36 -53 -58.5t-85 -22.5q-107 0 -174 74.5t-67 187.5q0 110 66 184t171 74q59 0 94 -23.5t47 -51.5v61h129v-403q0 -45 4 -89h-127
q-5 28 -5 61zM475 696v-18q0 -60 -29.5 -91.5t-77.5 -31.5q-39 0 -71 22l-6 4q-29 18 -47 18q-34 0 -35 -43h-82v21q0 58 30.5 89.5t78.5 31.5q30 0 72 -22l6 -4q32 -19 48 -19q33 0 33 43h80z" />
    <glyph glyph-name="adieresis.ss02" horiz-adv-x="612" 
d="M121 628q0 29 20.5 50t49.5 21t50 -21t21 -50t-21 -49.5t-50 -20.5t-49.5 20.5t-20.5 49.5zM331 628q0 30 20 50.5t50 20.5q29 0 50 -21t21 -50t-21 -49.5t-50 -20.5q-30 0 -50 20.5t-20 49.5zM168 248q0 -66 34.5 -106.5t88.5 -40.5q53 0 87 40.5t34 106.5t-33.5 104.5
t-87.5 38.5t-88.5 -38.5t-34.5 -104.5zM413 61v6q-16 -36 -53 -58.5t-85 -22.5q-107 0 -174 74.5t-67 187.5q0 110 66 184t171 74q59 0 94 -23.5t47 -51.5v61h129v-403q0 -45 4 -89h-127q-5 28 -5 61z" />
    <glyph glyph-name="aring.ss02" horiz-adv-x="612" 
d="M404 648q0 -47 -34 -78.5t-81 -31.5t-81 31.5t-34 78.5q0 48 34 80t81 32t81 -32t34 -80zM329 648q0 18 -11.5 30t-29.5 12q-17 0 -28.5 -11.5t-11.5 -30.5q0 -18 11.5 -29.5t28.5 -11.5t29 11.5t12 29.5zM168 248q0 -66 34.5 -106.5t88.5 -40.5q53 0 87 40.5t34 106.5
t-33.5 104.5t-87.5 38.5t-88.5 -38.5t-34.5 -104.5zM413 61v6q-16 -36 -53 -58.5t-85 -22.5q-107 0 -174 74.5t-67 187.5q0 110 66 184t171 74q59 0 94 -23.5t47 -51.5v61h129v-403q0 -45 4 -89h-127q-5 28 -5 61z" />
    <glyph glyph-name="r.ss03" horiz-adv-x="397" 
d="M204 492v-79q2 36 27 61t62 25t63 -25.5t26 -63.5t-26 -63.5t-63 -25.5t-62 24.5t-27 60.5v-406h-133v492h133z" />
    <glyph glyph-name="ampersand.ss04" horiz-adv-x="707" 
d="M385 233v114h289v-114h-73v-4q-3 -104 -76 -174t-198 -70q-124 0 -197.5 60.5t-73.5 154.5q0 70 43 119.5t102 65.5q-48 16 -78.5 57t-30.5 94q0 81 62.5 134.5t159.5 53.5q113 0 170.5 -56t62.5 -140l-132 -16q-2 45 -27 72t-73 27q-36 0 -62.5 -22t-26.5 -58
q0 -42 29.5 -64.5t62.5 -22.5h11v-114q-53 0 -93 -29t-40 -89q0 -45 34.5 -77.5t99.5 -32.5q60 0 95.5 33.5t37.5 93.5v4h-78z" />
    <glyph glyph-name="one.ss05" horiz-adv-x="487" 
d="M39 117h152v317h-150v93q69 1 113.5 35t54.5 87h119v-532h148v-117h-437v117z" />
    <glyph glyph-name="registered.ss06" horiz-adv-x="429" 
d="M23 526q0 79 56 135t135 56t135.5 -56t56.5 -135t-56.5 -135t-135.5 -56t-135 56t-56 135zM76 526q0 -59 40 -100t98 -41t98.5 41t40.5 100t-40.5 100t-98.5 41t-98 -41t-40 -100zM238 431l-28 65h-12v-65h-55v196h84q29 0 49 -19t20 -47q0 -38 -35 -55l36 -75h-59z
M198 541h16q25 0 25 20t-25 20h-16v-40z" />
    <glyph glyph-name="caron.alt" horiz-adv-x="213" 
d="M187 709l-72 -198h-89l29 198h132z" />
    <glyph glyph-name="commaaccent" horiz-adv-x="207" 
d="M26 685q0 27 21 45.5t52 18.5q34 0 57.5 -24t23.5 -62t-13.5 -64.5t-36.5 -39t-45 -18t-46 -5.5v47q35 0 56.5 13t24.5 33q-21 -7 -29 -7q-30 0 -47.5 17.5t-17.5 45.5z" />
    <glyph glyph-name="commaturn" horiz-adv-x="186" 
d="M171 605q0 -28 -20.5 -46t-52.5 -18q-35 0 -58 24t-23 62q0 44 24 74.5t54 41.5t63 11v-48q-35 0 -57 -13.5t-24 -32.5q7 7 28 7q31 0 48.5 -17.5t17.5 -44.5z" />
    <glyph glyph-name="dieresis.narrow" horiz-adv-x="332" 
d="M15 629q0 28 19.5 47.5t48.5 19.5q28 0 47.5 -19.5t19.5 -47.5q0 -29 -19.5 -48.5t-47.5 -19.5q-29 0 -48.5 19.5t-19.5 48.5zM183 629q0 28 19 47.5t47 19.5t48 -19.5t20 -47.5q0 -29 -19.5 -48.5t-48.5 -19.5q-28 0 -47 19.5t-19 48.5z" />
    <glyph glyph-name="dieresis.uc.narrow" horiz-adv-x="353" 
d="M16 823q0 29 19.5 49t48.5 20t49.5 -20t20.5 -49t-20.5 -49t-49.5 -20t-48.5 20t-19.5 49zM200 823q0 29 19.5 49t48.5 20t49 -20t20 -49t-20 -49t-49 -20t-48.5 20t-19.5 49z" />
    <glyph glyph-name="grave.uc" horiz-adv-x="292" 
d="M155 759l-145 127h163l104 -127h-122z" />
    <glyph glyph-name="dieresis.uc" horiz-adv-x="444" 
d="M21 823q0 30 20.5 51t50.5 21q31 0 52 -21t21 -51q0 -31 -21 -51.5t-52 -20.5t-51 20.5t-20 51.5zM279 823q0 30 20.5 51t51.5 21t52 -21t21 -51q0 -31 -21 -51.5t-52 -20.5t-51.5 20.5t-20.5 51.5z" />
    <glyph glyph-name="macron.uc" horiz-adv-x="337" 
d="M321 774h-305v100h305v-100z" />
    <glyph glyph-name="acute.uc" horiz-adv-x="292" 
d="M282 886l-145 -127h-122l103 127h164z" />
    <glyph glyph-name="circumflex.uc" horiz-adv-x="411" 
d="M140 759h-121l120 127h136l122 -127h-125l-67 65z" />
    <glyph glyph-name="caron.uc" horiz-adv-x="411" 
d="M19 886h124l66 -64l67 64h121l-122 -127h-136z" />
    <glyph glyph-name="breve.uc" horiz-adv-x="368" 
d="M184 753q-76 0 -118.5 40.5t-44.5 94.5h102q1 -22 16.5 -36.5t44.5 -14.5t44.5 14.5t16.5 36.5h102q-2 -54 -44.5 -94.5t-118.5 -40.5z" />
    <glyph glyph-name="dotaccent.uc" horiz-adv-x="193" 
d="M16 833q0 34 23.5 57t56.5 23q34 0 57.5 -23t23.5 -57q0 -33 -23.5 -56t-57.5 -23q-33 0 -56.5 23t-23.5 56z" />
    <glyph glyph-name="ring.uc" horiz-adv-x="294" 
d="M278 870q0 -54 -38.5 -90.5t-92.5 -36.5q-53 0 -92 36.5t-39 90.5t39 90.5t92 36.5q54 0 92.5 -36.5t38.5 -90.5zM194 870q0 21 -13.5 34t-33.5 13q-21 0 -34.5 -13t-13.5 -34t13.5 -34.5t34.5 -13.5q20 0 33.5 13.5t13.5 34.5z" />
    <glyph glyph-name="tilde.uc" horiz-adv-x="372" 
d="M356 890v-28q0 -52 -29 -81t-72 -29q-38 0 -75 24l-6 4q-33 20 -48 20q-29 0 -29 -43h-80v27q0 53 29 81t72 28q36 0 76 -23l6 -4q38 -19 47 -19q29 0 29 31v12h80z" />
    <glyph glyph-name="hungarumlaut.uc" horiz-adv-x="383" 
d="M196 886l-94 -127h-86l53 127h127zM367 886l-108 -127h-88l67 127h129z" />
    <glyph glyph-name="caron.alt.uc" horiz-adv-x="212" 
d="M195 709l-75 -208h-94l31 208h138z" />
    <glyph glyph-name="undercommaaccent" horiz-adv-x="187" 
d="M16 -102q0 27 21 45.5t52 18.5q34 0 57.5 -24.5t23.5 -62.5q0 -69 -42.5 -98t-98.5 -29v48q35 0 56.5 13.5t24.5 33.5q-14 -7 -29 -7q-30 0 -47.5 17t-17.5 45z" />
    </font>
</defs>
</svg>
